Дави на газ! (Gamle Mænd I Nye Biler) 2002 ВDRip 1080p

Torrent Details


Дави на газ! (Gamle mænd i nye biler) 2002 ВDRip 1080p

NAME
Дави на газ! (Gamle mænd i nye biler) 2002 ВDRip 1080p.torrent
CATEGORY
Movies
INFOHASH
651a0eef663c177155fa04e6db360effc7e1aeab
SIZE
8.7 GB in 0 files
ADDED
Uploaded on 25-07-2020 by our crawler pet called "Spidey".
SWARM
0 seeders & 0 peers
RATING
No votes yet.

Please login to vote for this torrent.


Description

Название: Дави на газ!

Оригинальное название: Gamle mænd i nye biler

Год выхода: 2002

Страна: Дания

Студия: Obel Film, Thura Film

Продолжительность: 01:36:21

Жанр: боевик, комедия, криминал, ...

Режиссер: Лассе Спанг Ольсен

В ролях: Ким Бодния, Николай Ли Каас, Томас Виллум Йенсен, Брайан Паттерсон, Торкель Петерссон, Ибен Яйль, Йенс Оккинг, Джейкоб Хаугорд, Славко Лабович, Томас Роде Андерсен, ...

Перевод: Профессиональный (двухголосый, закадровый) R5 Кармен Видео



О фильме: Гарольд вышел из тюрьмы и планирует вернуться к своему тихому бизнесу в маленькой кафешке. Но друг по кличке Монах обращает к Гарольду предсмертную просьбу — вытащить из тюрьмы сына, отбывающего пожизненный срок. Тихим поварам не суждено поучаствовать в национальном фестивале по выпечке — кондитеры выдвигаются на взятие неприступной тюрьмы…

Естественно, план пойдет враскоряку с первых же минут, сынуля окажется маньяком, в заложницы попадет патентованная суицидница, а местная полиция потеряет в погоне весь свой автопарк. И только, казалось бы, милые повара могут вернуться к любимой выпечке, как сын-маньяк решает устроить родному папаше операцию по пересадкедонорской почки в Боливии. Невозмутимый Гарольд берется организовать ограбление банка…







Кодек: x264

Качество: BDRip 1080p

Видео: 1908x1076, 11000 kbps, 23,976 fps

Аудио #1: AC-3, 2 ch, 384 kbps (Rus) - DVO R5 Кармен Видео

Аудио #2: DTS, 6 ch, 1509 kbps (Dan)



MI

x264 [info]: frame I:1036 Avg QP:16.34 size:154857

x264 [info]: frame P:30565 Avg QP:18.72 size: 89187

x264 [info]: frame B:107021 Avg QP:20.73 size: 47274

x264 [info]: consecutive B-frames: 3.3% 3.1% 6.5% 14.9% 11.8% 50.6% 5.3% 1.1% 2.1% 0.8% 0.5%



Общее

Уникальный идентификатор : 254876310427734925470969761835919137165 (0xBFBF644F6A25692799B683B74268D98D)

Полное имя : Дави на газ! (Gamle mænd i nye biler) 2002 ВDRip 1080p.mkv

Формат : Matroska

Версия формата : Version 2

Размер файла : 8,68 Гбайт

Продолжительность : 1 ч. 36 м.

Общий поток : 12,9 Мбит/сек

Дата кодирования : UTC 2016-01-04 17:56:17

Программа кодирования : mkvmerge v4.0.0 ('The Stars were mine') сборка от Jun 6 2010 16:18:42

Библиотека кодирования : libebml v1.0.0 + libmatroska v1.0.0



Видео

Идентификатор : 1

Формат : AVC

Формат/Информация : Advanced Video Codec

Профиль формата : [email protected]

Параметр CABAC формата : Да

Параметр ReFrames формата : 4 кадра

Идентификатор кодека : V_MPEG4/ISO/AVC

Продолжительность : 1 ч. 36 м.

Битрейт : 11,0 Мбит/сек

Ширина : 1908 пикселей

Высота : 1076 пикселей

Соотношение сторон : 16:9

Режим частоты кадров : Постоянный

Частота кадров : 23,976 кадра/сек

Цветовое пространство : YUV

Субдискретизация насыщенности : 4:2:0

Битовая глубина : 8 бит

Тип развёртки : Прогрессивная

Бит/(Пиксели*Кадры) : 0.223

Размер потока : 7,23 Гбайт (83%)

Библиотека кодирования : x264 core 146 r2538 121396c

Настройки программы : cabac=1 / ref=4 / deblock=1:-3:-3 / analyse=0x3:0x133 / me=umh / subme=11 / psy=1 / psy_rd=1.00:0.00 / mixed_ref=1 / me_range=32 / chroma_me=1 / trellis=2 / 8x8dct=1 / cqm=0 / deadzone=21,11 / fast_pskip=1 / chroma_qp_offset=-4 / threads=12 / lookahead_threads=2 / sliced_threads=0 / nr=0 / decimate=0 / interlaced=0 / bluray_compat=0 / constrained_intra=0 / bframes=10 / b_pyramid=2 / b_adapt=2 / b_bias=0 / direct=3 / weightb=1 / open_gop=0 / weightp=2 / keyint=240 / keyint_min=23 / scenecut=40 / intra_refresh=0 / rc_lookahead=60 / rc=2pass / mbtree=0 / bitrate=11000 / ratetol=1.0 / qcomp=0.60 / qpmin=0 / qpmax=69 / qpstep=4 / cplxblur=20.0 / qblur=0.5 / vbv_maxrate=50000 / vbv_bufsize=62500 / nal_hrd=none / filler=0 / ip_ratio=1.40 / pb_ratio=1.30 / aq=1:0.80

Язык : Danish

Default : Нет

Forced : Нет



Аудио #1

Идентификатор : 2

Формат : AC-3

Формат/Информация : Audio Coding 3

Расширение режима : CM (complete main)

Параметр Endianness формата : Big

Идентификатор кодека : A_AC3

Продолжительность : 1 ч. 36 м.

Вид битрейта : Постоянный

Битрейт : 384 Кбит/сек

Каналы : 2 канала

Расположение каналов : Front: L R

Частота : 48,0 КГц

Метод сжатия : С потерями

Размер потока : 265 Мбайт (3%)

Заголовок : DVO R5 Кармен Видео

Язык : Russian

Default : Нет

Forced : Нет



Аудио #2

Идентификатор : 3

Формат : DTS

Формат/Информация : Digital Theater Systems

Режим : 16

Параметр Endianness формата : Big

Идентификатор кодека : A_DTS

Продолжительность : 1 ч. 36 м.

Вид битрейта : Постоянный

Битрейт : 1509 Кбит/сек

Каналы : 6 каналов

Расположение каналов : Front: L C R, Side: L R, LFE

Частота : 48,0 КГц

Битовая глубина : 16 бит

Метод сжатия : С потерями

Размер потока : 1,02 Гбайт (12%)

Язык : Danish

Default : Нет

Forced : Нет





Discussion

Comments 0

Post Your Comment

Torrent Files (Unavailable)

Please check back later to get a list of all files included in this torrent.

Alternative Torrents for 'Дави на газ Gamle mænd nye biler ВDRip'.

TORRENT NAMEADDEDSIZESEEDSPEERSHEALTH
7/25/20208.7 GB00