ContraLand - Child Contraband 2020 Full Version - Documentary [Uncensored] 720

Torrent Details


ContraLand - Child Contraband 2020 Full Version - Documentary [Uncensored] 720

NAME
ContraLand - Child Contraband 2020 Full Version - Documentary [Uncensored] 720.torrent
CATEGORY
Television
INFOHASH
8e6e6f03c88ef8a452cc5431fb46a27f229e42c8
SIZE
379 MB in 3 files
ADDED
Uploaded on 27-07-2020 by our crawler pet called "Spidey".
SWARM
0 seeders & 0 peers
RATING
No votes yet.

Please login to vote for this torrent.


Description

ContraLand: Child Contraband [Full Version]



Child sex trafficking is the fastest-growing criminal enterprise on earth.



Its an estimated $38 Billion dollar a year industry..  Blackmail involving

pedophilia, is at the root of much of America's political corruption.



By turning a blind eye we've all allowed a harmful epidemic to take root..

Let their be no more turning away. Rise with V4CR and help end child trafficking!

Vets4childrescue.org





  ****WARNING****

THESE PEOPLE ARE SICK!!



Uncensored



https://www.bitchute.com/video/vfMLt1SDO8WL/





















General

Complete name                            : ContraLand  Child Contraband 2020 Full Version [Uncensored] 720

Format                                   : MPEG-4

Format profile                           : Base Media

Codec ID                                 : isom (isom/iso2/avc1/mp41)

File size                                : 379 MiB

Duration                                 : 1 h 38 min

Overall bit rate                         : 538 kb/s

Movie name                               : 1581683248645738

Album                                    : Heart of Man

Performer                                : Tony Anderson

Description                              : Child sex trafficking expose' documentary, Contraland, filmed by the Veterans of non-profit organization Veterans For Child Rescue. V4CR exposes the multi-billion dollar industry of child sex trafficking, alerting the populace on the epidemic and how you can empower and safeguard all children. /  / https://donorbox.org/shine-the-light /  / V4CR Website: https://www.vets4childrescue.org/ / ContraLand Website: https://www.contralandmovie.com/

Recorded date                            : 20200509

Writing application                      : Lavf58.20.100



Video

ID                                       : 1

Format                                   : AVC

Format/Info                              : Advanced Video Codec

Format profile                           : [email protected]

Format settings                          : CABAC / 5 Ref Frames

Format settings, CABAC                   : Yes

Format settings, RefFrames               : 5 frames

Codec ID                                 : avc1

Codec ID/Info                            : Advanced Video Coding

Duration                                 : 1 h 38 min

Bit rate                                 : 485 kb/s

Width                                    : 1 280 pixels

Height                                   : 720 pixels

Display aspect ratio                     : 16:9

Frame rate mode                          : Constant

Frame rate                               : 23.976 (23976/1000) FPS

Color space                              : YUV

Chroma subsampling                       : 4:2:0

Bit depth                                : 8 bits

Scan type                                : Progressive

Bits/(Pixel*Frame)                       : 0.022

Stream size                              : 342 MiB (90%)

Writing library                          : x264 core 157

Color range                              : Limited

Color primaries                          : BT.709

Transfer characteristics                 : BT.709

Matrix coefficients                      : BT.709

Codec configuration box                  : avcC



Audio

ID                                       : 2

Format                                   : AAC LC SBR

Format/Info                              : Advanced Audio Codec Low Complexity with Spectral Band Replication

Commercial name                          : HE-AAC

Format settings                          : NBC

Codec ID                                 : mp4a-40-5

Duration                                 : 1 h 38 min

Duration_LastFrame                       : -1 ms

Bit rate mode                            : Constant

Bit rate                                 : 48.0 kb/s

Channel(s)                               : 2 channels

Channel layout                           : L R

Sampling rate                            : 44.1 kHz

Frame rate                               : 21.533 FPS (2048 SPF)

Compression mode                         : Lossy

Stream size                              : 33.9 MiB (9%)

Default                                  : Yes

Alternate group                          : 1

Discussion

Comments 0

Post Your Comment

Files in this torrent

FILENAMESIZE
ContraLand Child Contraband 720.mp4379.4 MB
ContraLand.txt4.9 KB
Downloaded from.txt64 B

Alternative Torrents for 'ContraLand Child Contraband Full Version Documentary Uncensored'.

TORRENT NAMEADDEDSIZESEEDSPEERSHEALTH
7/27/2020379 MB00