The Kissing Booth 2 (2020) (1080p Webrip X265 10bit EAC3 5.1 - ArcX)[TAoE]

Torrent Details

The Kissing Booth 2 (2020) (1080p Webrip x265 10bit EAC3 5.1 - ArcX)<span style=color:#fc9c6d>[TAoE]</span>
The Kissing Booth 2 (2020) (1080p Webrip x265 10bit EAC3 5.1 - ArcX)<span style=color:#fc9c6d>[TAoE]</span>

NAME
The Kissing Booth 2 (2020) (1080p Webrip x265 10bit EAC3 5.1 - ArcX)[TAoE].torrent
CATEGORY
Movies
INFOHASH
dd0fd10debb7fa43e84902be662b024db8f3ee3e
SIZE
3.7 GB in 1 file
ADDED
Uploaded on 27-07-2020 by our crawler pet called "Spidey".
SWARM
0 seeders & 0 peers
RATING
No votes yet.

Please login to vote for this torrent.


Description



Hello everyone,

We are TAoE, a small team of passionate encoders who love encoding. We try our best to provide you with high quality releases.



Requests for movies and shows are welcome.

We have a form for encode requests which can be found here

Encode requests form

submit your request and it will be added to our encoding request list

You can view our encoding request list here

Encode requests list





When or if we encode it will depend on if we can obtain a good source to encode with and

if one of the TAoE encoders chooses to encode it. Unfortunately we are not able to encode everything,

new members are welcome as that helps us encode more content!



If you would like to join TAoE submit your request here!

TAoE member applications form









The Kissing Booth 2 (2020) IMDB















Media Information



General

Unique ID                                : 239872173529958721288471878523812217843 (0xB475B33F2BB967E2C154A7D1E41683F3)

Complete name                            : The Kissing Booth 2 (2020) (1080p Webrip x265 10bit EAC3 5.1 - ArcX)[TAoE].mkv

Format                                   : Matroska

Format version                           : Version 4

File size                                : 3.69 GiB

Duration                                 : 2 h 12 min

Overall bit rate                         : 3 983 kb/s

Movie name                               : The Kissing Booth 2 (2020) (1080p Webrip x265 10bit EAC3 5.1 - ArcX)[TAoE].mkv

Writing application                      : Lavf58.29.100

Writing library                          : Lavf58.29.100

ErrorDetectionType                       : Per level 1



Video

ID                                       : 1

Format                                   : HEVC

Format/Info                              : High Efficiency Video Coding

Format profile                           : Main [email protected]@Main

Codec ID                                 : V_MPEGH/ISO/HEVC

Duration                                 : 2 h 12 min

Bit rate                                 : 3 336 kb/s

Width                                    : 1 920 pixels

Height                                   : 1 080 pixels

Display aspect ratio                     : 16:9

Frame rate mode                          : Constant

Frame rate                               : 24.000 FPS

Color space                              : YUV

Chroma subsampling                       : 4:2:0

Bit depth                                : 10 bits

Bits/(Pixel*Frame)                       : 0.067

Stream size                              : 3.09 GiB (84%)

Title                                    : Encoded by ArcX for TAoE using Shinguru V1.9

Writing library                          : x265 3.2+35-acc5d16999e2:[Windows][GCC 9.2.1][64 bit] 10bit

Encoding settings                        : cpuid=1111039 / frame-threads=3 / numa-pools=12 / wpp / no-pmode / no-pme / no-psnr / no-ssim / log-level=2 / input-csp=1 / input-res=1920x1080 / interlace=0 / total-frames=0 / level-idc=0 / high-tier=1 / uhd-bd=0 / ref=4 / no-allow-non-conformance / no-repeat-headers / annexb / no-aud / no-hrd / info / hash=0 / no-temporal-layers / open-gop / min-keyint=24 / keyint=250 / gop-lookahead=0 / bframes=8 / b-adapt=2 / b-pyramid / bframe-bias=0 / rc-lookahead=80 / lookahead-slices=4 / scenecut=40 / hist-scenecut=0 / radl=0 / no-splice / no-intra-refresh / ctu=64 / min-cu-size=8 / no-rect / no-amp / max-tu-size=32 / tu-inter-depth=1 / tu-intra-depth=1 / limit-tu=0 / rdoq-level=2 / dynamic-rd=0.00 / no-ssim-rd / signhide / no-tskip / nr-intra=0 / nr-inter=0 / no-constrained-intra / no-strong-intra-smoothing / max-merge=3 / limit-refs=3 / limit-modes / me=3 / subme=5 / merange=57 / temporal-mvp / no-frame-dup / no-hme / weightp / no-weightb / no-analyze-src-pics / deblock=0:0 / sao / no-sao-non-deblock / rd=4 / selective-sao=4 / no-early-skip / rskip / no-fast-intra / no-tskip-fast / no-cu-lossless / no-b-intra / no-splitrd-skip / rdpenalty=0 / psy-rd=1.30 / psy-rdoq=2.00 / no-rd-refine / no-lossless / cbqpoffs=0 / crqpoffs=0 / rc=crf / crf=19.5 / qcomp=0.60 / qpstep=4 / stats-write=0 / stats-read=0 / ipratio=1.40 / pbratio=1.30 / aq-mode=4 / aq-strength=1.10 / cutree / zone-count=0 / no-strict-cbr / qg-size=32 / no-rc-grain / qpmax=69 / qpmin=0 / no-const-vbv / sar=1 / overscan=0 / videoformat=5 / range=0 / colorprim=2 / transfer=2 / colormatrix=2 / chromaloc=0 / display-window=0 / cll=0,0 / min-luma=0 / max-luma=1023 / log2-max-poc-lsb=8 / vui-timing-info / vui-hrd-info / slices=1 / no-opt-qp-pps / no-opt-ref-list-length-pps / no-multi-pass-opt-rps / scenecut-bias=0.05 / hist-threshold=0.01 / no-opt-cu-delta-qp / no-aq-motion / no-hdr10 / no-hdr10-opt / no-dhdr10-opt / no-idr-recovery-sei / analysis-reuse-level=0 / analysis-save-reuse-level=0 / analysis-load-reuse-level=0 / scale-factor=0 / refine-intra=0 / refine-inter=0 / refine-mv=1 / refine-ctu-distortion=0 / no-limit-sao / ctu-info=0 / no-lowpass-dct / refine-analysis-type=0 / copy-pic=1 / max-ausize-factor=1.0 / no-dynamic-refine / no-single-sei / no-hevc-aq / no-svt / no-field / qp-adaptation-range=1.00 / no-scenecut-aware-qpconformance-window-offsets / right=0 / bottom=0

Default                                  : Yes

Forced                                   : No

Color range                              : Limited



Audio

ID                                       : 2

Format                                   : E-AC-3

Format/Info                              : Enhanced AC-3

Commercial name                          : Dolby Digital Plus

Codec ID                                 : A_EAC3

Duration                                 : 2 h 12 min

Bit rate mode                            : Constant

Bit rate                                 : 640 kb/s

Channel(s)                               : 6 channels

Channel layout                           : L R C LFE Ls Rs

Sampling rate                            : 48.0 kHz

Frame rate                               : 31.250 FPS (1536 SPF)

Bit depth                                : 32 bits

Compression mode                         : Lossy

Stream size                              : 608 MiB (16%)

Language                                 : English

Service kind                             : Complete Main

Default                                  : Yes

Forced                                   : No



Text #1

ID                                       : 3

Format                                   : UTF-8

Codec ID                                 : S_TEXT/UTF8

Codec ID/Info                            : UTF-8 Plain Text

Duration                                 : 2 h 9 min

Bit rate                                 : 109 b/s

Count of elements                        : 2313

Stream size                              : 104 KiB (0%)

Title                                    : English

Language                                 : English

Default                                  : No

Forced                                   : No



Text #2

ID                                       : 4

Format                                   : UTF-8

Codec ID                                 : S_TEXT/UTF8

Codec ID/Info                            : UTF-8 Plain Text

Duration                                 : 2 h 10 min

Bit rate                                 : 102 b/s

Count of elements                        : 1881

Stream size                              : 98.3 KiB (0%)

Title                                    : Arabic

Language                                 : Arabic

Default                                  : No

Forced                                   : No



Text #3

ID                                       : 5

Format                                   : UTF-8

Codec ID                                 : S_TEXT/UTF8

Codec ID/Info                            : UTF-8 Plain Text

Duration                                 : 2 h 10 min

Bit rate                                 : 58 b/s

Count of elements                        : 1903

Stream size                              : 55.6 KiB (0%)

Title                                    : Chinese Simplified

Language                                 : Chinese

Default                                  : No

Forced                                   : No



Text #4

ID                                       : 6

Format                                   : UTF-8

Codec ID                                 : S_TEXT/UTF8

Codec ID/Info                            : UTF-8 Plain Text

Duration                                 : 2 h 10 min

Bit rate                                 : 58 b/s

Count of elements                        : 1901

Stream size                              : 55.5 KiB (0%)

Title                                    : Chinese Traditional

Language                                 : Chinese

Default                                  : No

Forced                                   : No



Text #5

ID                                       : 7

Format                                   : UTF-8

Codec ID                                 : S_TEXT/UTF8

Codec ID/Info                            : UTF-8 Plain Text

Duration                                 : 2 h 10 min

Bit rate                                 : 57 b/s

Count of elements                        : 1865

Stream size                              : 55.2 KiB (0%)

Title                                    : Czech

Language                                 : Czech

Default                                  : No

Forced                                   : No



Text #6

ID                                       : 8

Format                                   : UTF-8

Codec ID                                 : S_TEXT/UTF8

Codec ID/Info                            : UTF-8 Plain Text

Duration                                 : 2 h 10 min

Bit rate                                 : 58 b/s

Count of elements                        : 1429

Stream size                              : 56.2 KiB (0%)

Title                                    : Danish

Language                                 : Danish

Default                                  : No

Forced                                   : No



Text #7

ID                                       : 9

Format                                   : UTF-8

Codec ID                                 : S_TEXT/UTF8

Codec ID/Info                            : UTF-8 Plain Text

Duration                                 : 2 h 9 min

Bit rate                                 : 54 b/s

Count of elements                        : 1597

Stream size                              : 52.0 KiB (0%)

Title                                    : Dutch

Language                                 : Dutch

Default                                  : No

Forced                                   : No



Text #8

ID                                       : 10

Format                                   : UTF-8

Codec ID                                 : S_TEXT/UTF8

Codec ID/Info                            : UTF-8 Plain Text

Duration                                 : 2 h 10 min

Bit rate                                 : 53 b/s

Count of elements                        : 1585

Stream size                              : 51.0 KiB (0%)

Title                                    : Finnish

Language                                 : Finnish

Default                                  : No

Forced                                   : No



Text #9

ID                                       : 11

Format                                   : UTF-8

Codec ID                                 : S_TEXT/UTF8

Codec ID/Info                            : UTF-8 Plain Text

Duration                                 : 2 h 10 min

Bit rate                                 : 53 b/s

Count of elements                        : 1730

Stream size                              : 51.3 KiB (0%)

Title                                    : French

Language                                 : French

Default                                  : No

Forced                                   : No



Text #10

ID                                       : 12

Format                                   : UTF-8

Codec ID                                 : S_TEXT/UTF8

Codec ID/Info                            : UTF-8 Plain Text

Duration                                 : 2 h 9 min

Bit rate                                 : 62 b/s

Count of elements                        : 1848

Stream size                              : 59.3 KiB (0%)

Title                                    : German

Language                                 : German

Default                                  : No

Forced                                   : No



Text #11

ID                                       : 13

Format                                   : UTF-8

Codec ID                                 : S_TEXT/UTF8

Codec ID/Info                            : UTF-8 Plain Text

Duration                                 : 2 h 10 min

Bit rate                                 : 92 b/s

Count of elements                        : 1799

Stream size                              : 87.9 KiB (0%)

Title                                    : Greek

Language                                 : Greek

Default                                  : No

Forced                                   : No



Text #12

ID                                       : 14

Format                                   : UTF-8

Codec ID                                 : S_TEXT/UTF8

Codec ID/Info                            : UTF-8 Plain Text

Duration                                 : 2 h 9 min

Bit rate                                 : 104 b/s

Count of elements                        : 1886

Stream size                              : 98.8 KiB (0%)

Title                                    : Hebrew

Language                                 : Hebrew

Default                                  : No

Forced                                   : No



Text #13

ID                                       : 15

Format                                   : UTF-8

Codec ID                                 : S_TEXT/UTF8

Codec ID/Info                            : UTF-8 Plain Text

Duration                                 : 2 h 9 min

Bit rate                                 : 58 b/s

Count of elements                        : 1706

Stream size                              : 55.4 KiB (0%)

Title                                    : Hungarian

Language                                 : Hungarian

Default                                  : No

Forced                                   : No



Text #14

ID                                       : 16

Format                                   : UTF-8

Codec ID                                 : S_TEXT/UTF8

Codec ID/Info                            : UTF-8 Plain Text

Duration                                 : 2 h 10 min

Bit rate                                 : 52 b/s

Count of elements                        : 1861

Stream size                              : 50.0 KiB (0%)

Title                                    : Indonesian

Language                                 : Indonesian

Default                                  : No

Forced                                   : No



Text #15

ID                                       : 17

Format                                   : UTF-8

Codec ID                                 : S_TEXT/UTF8

Codec ID/Info                            : UTF-8 Plain Text

Duration                                 : 2 h 10 min

Bit rate                                 : 59 b/s

Count of elements                        : 1738

Stream size                              : 56.4 KiB (0%)

Title                                    : Italian

Language                                 : Italian

Default                                  : No

Forced                                   : No



Text #16

ID                                       : 18

Format                                   : UTF-8

Codec ID                                 : S_TEXT/UTF8

Codec ID/Info                            : UTF-8 Plain Text

Duration                                 : 2 h 10 min

Bit rate                                 : 54 b/s

Count of elements                        : 1804

Stream size                              : 52.2 KiB (0%)

Title                                    : Japanese

Language                                 : Japanese

Default                                  : No

Forced                                   : No



Text #17

ID                                       : 19

Format                                   : UTF-8

Codec ID                                 : S_TEXT/UTF8

Codec ID/Info                            : UTF-8 Plain Text

Duration                                 : 2 h 10 min

Bit rate                                 : 66 b/s

Count of elements                        : 1891

Stream size                              : 63.6 KiB (0%)

Title                                    : Korean

Language                                 : Korean

Default                                  : No

Forced                                   : No



Text #18

ID                                       : 20

Format                                   : UTF-8

Codec ID                                 : S_TEXT/UTF8

Codec ID/Info                            : UTF-8 Plain Text

Duration                                 : 2 h 10 min

Bit rate                                 : 57 b/s

Count of elements                        : 1752

Stream size                              : 54.7 KiB (0%)

Title                                    : Norwegian Bokmal

Language                                 : Norwegian Bokmal

Default                                  : No

Forced                                   : No



Text #19

ID                                       : 21

Format                                   : UTF-8

Codec ID                                 : S_TEXT/UTF8

Codec ID/Info                            : UTF-8 Plain Text

Duration                                 : 2 h 9 min

Bit rate                                 : 55 b/s

Count of elements                        : 1838

Stream size                              : 52.3 KiB (0%)

Title                                    : Polish

Language                                 : Polish

Default                                  : No

Forced                                   : No



Text #20

ID                                       : 22

Format                                   : UTF-8

Codec ID                                 : S_TEXT/UTF8

Codec ID/Info                            : UTF-8 Plain Text

Duration                                 : 2 h 10 min

Bit rate                                 : 57 b/s

Count of elements                        : 1749

Stream size                              : 54.6 KiB (0%)

Title                                    : Portuguese

Language                                 : Portuguese

Default                                  : No

Forced                                   : No



Text #21

ID                                       : 23

Format                                   : UTF-8

Codec ID                                 : S_TEXT/UTF8

Codec ID/Info                            : UTF-8 Plain Text

Duration                                 : 2 h 10 min

Bit rate                                 : 60 b/s

Count of elements                        : 1860

Stream size                              : 57.7 KiB (0%)

Title                                    : Brazilian Portuguese

Language                                 : Portuguese

Default                                  : No

Forced                                   : No



Text #22

ID                                       : 24

Format                                   : UTF-8

Codec ID                                 : S_TEXT/UTF8

Codec ID/Info                            : UTF-8 Plain Text

Duration                                 : 2 h 10 min

Bit rate                                 : 65 b/s

Count of elements                        : 1872

Stream size                              : 62.8 KiB (0%)

Title                                    : Romanian

Language                                 : Romanian

Default                                  : No

Forced                                   : No



Text #23

ID                                       : 25

Format                                   : UTF-8

Codec ID                                 : S_TEXT/UTF8

Codec ID/Info                            : UTF-8 Plain Text

Duration                                 : 2 h 10 min

Bit rate                                 : 97 b/s

Count of elements                        : 1770

Stream size                              : 93.1 KiB (0%)

Title                                    : Russian

Language                                 : Russian

Default                                  : No

Forced                                   : No



Text #24

ID                                       : 26

Format                                   : UTF-8

Codec ID                                 : S_TEXT/UTF8

Codec ID/Info                            : UTF-8 Plain Text

Duration                                 : 2 h 10 min

Bit rate                                 : 57 b/s

Count of elements                        : 1784

Stream size                              : 55.2 KiB (0%)

Title                                    : Spanish

Language                                 : Spanish

Default                                  : No

Forced                                   : No



Text #25

ID                                       : 27

Format                                   : UTF-8

Codec ID                                 : S_TEXT/UTF8

Codec ID/Info                            : UTF-8 Plain Text

Duration                                 : 2 h 10 min

Bit rate                                 : 61 b/s

Count of elements                        : 1859

Stream size                              : 58.4 KiB (0%)

Title                                    : European Spanish

Language                                 : Spanish

Default                                  : No

Forced                                   : No



Text #26

ID                                       : 28

Format                                   : UTF-8

Codec ID                                 : S_TEXT/UTF8

Codec ID/Info                            : UTF-8 Plain Text

Duration                                 : 2 h 10 min

Bit rate                                 : 55 b/s

Count of elements                        : 1620

Stream size                              : 53.0 KiB (0%)

Title                                    : Swedish

Language                                 : Swedish

Default                                  : No

Forced                                   : No



Text #27

ID                                       : 29

Format                                   : UTF-8

Codec ID                                 : S_TEXT/UTF8

Codec ID/Info                            : UTF-8 Plain Text

Duration                                 : 2 h 10 min

Bit rate                                 : 157 b/s

Count of elements                        : 1900

Stream size                              : 150 KiB (0%)

Title                                    : Thai

Language                                 : Thai

Default                                  : No

Forced                                   : No



Text #28

ID                                       : 30

Format                                   : UTF-8

Codec ID                                 : S_TEXT/UTF8

Codec ID/Info                            : UTF-8 Plain Text

Duration                                 : 2 h 10 min

Bit rate                                 : 57 b/s

Count of elements                        : 1868

Stream size                              : 55.2 KiB (0%)

Title                                    : Turkish

Language                                 : Turkish

Default                                  : No

Forced                                   : No



Text #29

ID                                       : 31

Format                                   : UTF-8

Codec ID                                 : S_TEXT/UTF8

Codec ID/Info                            : UTF-8 Plain Text

Duration                                 : 2 h 10 min

Bit rate                                 : 83 b/s

Count of elements                        : 1869

Stream size                              : 79.3 KiB (0%)

Title                                    : Vietnamese

Language                                 : Vietnamese

Default                                  : No

Forced                                   : No



Source Information

1080p WEB H264 SECRECY

Discussion

Comments 0

Post Your Comment

Files in this torrent

FILENAMESIZE
The Kissing Booth 2 (2020) (1080p Webrip x265 10bit EAC3 5.1 - ArcX)[TAoE].mkv3.7 GB

Alternative Torrents for 'Kissing Booth bit EAC ArcX'.

TORRENT NAMEADDEDSIZESEEDSPEERSHEALTH
9/22/2020782 MB14846
9/22/20201.6 GB14141
9/24/20205.3 GB8855
9/22/2020796 MB8231
9/19/20202.2 GB7129
9/20/20202.8 GB5726
9/23/20205.3 GB5516
9/22/20204.7 GB429
9/22/2020372 MB302
9/23/2020492 MB275
9/22/20204.7 GB2610
9/13/20201.6 GB252
9/25/20203.8 GB2420
9/23/20208.6 GB234
9/17/20203 GB231