Condor (2018) Season 1 S01 (1080p AMZN WEB-DL X265 HEVC 10bit DDP 5.1 Vyndros)

Torrent Details

Condor (2018) Season 1 S01 (1080p AMZN WEB-DL x265 HEVC 10bit DDP 5.1 Vyndros)

NAME
Condor (2018) Season 1 S01 (1080p AMZN WEB-DL x265 HEVC 10bit DDP 5.1 Vyndros).torrent
CATEGORY
Television
INFOHASH
88cce2ba2c38800b05c16975ee775d8daf7d6e0b
SIZE
8.2 GB in 10 files
ADDED
Uploaded on 27-07-2020 by our crawler pet called "Spidey".
SWARM
0 seeders & 0 peers
RATING
No votes yet.

Please login to vote for this torrent.


Description













Media Information



General

Format                                   : Matroska

Format version                           : Version 4 / Version 2

File size                                : 770 MiB

Duration                                 : 48 min 5 s

Overall bit rate                         : 2 237 kb/s

Encoded date                             : UTC 2020-06-13 03:27:31

Writing application                      : mkvmerge v20.0.0 ('I Am The Sun') 64-bit

Writing library                          : libebml v1.3.5 + libmatroska v1.4.8

Writing frontend                         : StaxRip v1.7.0.6



Video

ID                                       : 1

Format                                   : HEVC

Format/Info                              : High Efficiency Video Coding

Format profile                           : Main [email protected]@Main

Codec ID                                 : V_MPEGH/ISO/HEVC

Duration                                 : 48 min 5 s

Bit rate                                 : 1 596 kb/s

Width                                    : 1 920 pixels

Height                                   : 960 pixels

Display aspect ratio                     : 2.000

Frame rate mode                          : Constant

Frame rate                               : 23.976 (24000/1001) FPS

Color space                              : YUV

Chroma subsampling                       : 4:2:0

Bit depth                                : 10 bits

Bits/(Pixel*Frame)                       : 0.036

Stream size                              : 549 MiB (71%)

Writing library                          : x265 3.4+1-7b120308dc64:[Windows][MSVC 1926][64 bit] 10bit

Encoding settings                        : cpuid=1111039 / frame-threads=3 / numa-pools=12 / wpp / no-pmode / no-pme / no-psnr / ssim / log-level=2 / input-csp=1 / input-res=1920x960 / interlace=0 / total-frames=69190 / level-idc=0 / high-tier=1 / uhd-bd=0 / ref=3 / no-allow-non-conformance / no-repeat-headers / annexb / no-aud / no-hrd / info / hash=0 / no-temporal-layers / open-gop / min-keyint=23 / keyint=250 / gop-lookahead=0 / bframes=8 / b-adapt=2 / b-pyramid / bframe-bias=0 / rc-lookahead=80 / lookahead-slices=6 / scenecut=40 / hist-scenecut=0 / radl=0 / no-splice / no-intra-refresh / ctu=64 / min-cu-size=8 / no-rect / no-amp / max-tu-size=32 / tu-inter-depth=1 / tu-intra-depth=1 / limit-tu=0 / rdoq-level=0 / dynamic-rd=0.00 / no-ssim-rd / signhide / no-tskip / nr-intra=0 / nr-inter=0 / no-constrained-intra / no-strong-intra-smoothing / max-merge=5 / limit-refs=1 / no-limit-modes / me=3 / subme=5 / merange=57 / temporal-mvp / no-frame-dup / no-hme / weightp / no-weightb / no-analyze-src-pics / deblock=0:0 / sao / no-sao-non-deblock / rd=3 / selective-sao=4 / early-skip / no-rskip / no-fast-intra / no-tskip-fast / no-cu-lossless / b-intra / no-splitrd-skip / rdpenalty=0 / psy-rd=2.00 / psy-rdoq=0.00 / no-rd-refine / no-lossless / cbqpoffs=0 / crqpoffs=0 / rc=crf / crf=20.0 / qcomp=0.60 / qpstep=4 / stats-write=0 / stats-read=0 / ipratio=1.40 / pbratio=1.30 / aq-mode=3 / aq-strength=1.00 / cutree / zone-count=0 / no-strict-cbr / qg-size=32 / no-rc-grain / qpmax=69 / qpmin=0 / no-const-vbv / sar=0 / overscan=0 / videoformat=5 / range=0 / colorprim=2 / transfer=2 / colormatrix=2 / chromaloc=0 / display-window=0 / cll=0,0 / min-luma=0 / max-luma=1023 / log2-max-poc-lsb=8 / vui-timing-info / vui-hrd-info / slices=1 / no-opt-qp-pps / no-opt-ref-list-length-pps / no-multi-pass-opt-rps / scenecut-bias=0.05 / hist-threshold=0.01 / no-opt-cu-delta-qp / no-aq-motion / no-hdr10 / no-hdr10-opt / no-dhdr10-opt / no-idr-recovery-sei / analysis-reuse-level=0 / analysis-save-reuse-level=0 / analysis-load-reuse-level=0 / scale-factor=0 / refine-intra=0 / refine-inter=0 / refine-mv=1 / refine-ctu-distortion=0 / no-limit-sao / ctu-info=0 / no-lowpass-dct / refine-analysis-type=0 / copy-pic=1 / max-ausize-factor=1.0 / no-dynamic-refine / no-single-sei / no-hevc-aq / no-svt / no-field / qp-adaptation-range=1.00 / no-scenecut-aware-qpconformance-window-offsets / right=0 / bottom=0 / decoder-max-rate=0

Default                                  : Yes

Forced                                   : No



Audio

ID                                       : 2

Format                                   : E-AC-3

Format/Info                              : Enhanced Audio Coding 3

Format settings, Endianness              : Big

Codec ID                                 : A_EAC3

Duration                                 : 48 min 5 s

Bit rate mode                            : Constant

Bit rate                                 : 640 kb/s

Channel(s)                               : 6 channels

Channel positions                        : Front: L C R, Side: L R, LFE

Sampling rate                            : 48.0 kHz

Frame rate                               : 187.500 FPS (256 spf)

Compression mode                         : Lossy

Stream size                              : 220 MiB (29%)

Language                                 : English

Default                                  : No

Forced                                   : No



Subtitle

ID                                       : 3

Format                                   : UTF-8

Codec ID                                 : S_TEXT/UTF8

Codec ID/Info                            : UTF-8 Plain Text

Duration                                 : 46 min 6 s

Bit rate                                 : 65 b/s

Count of elements                        : 678

Stream size                              : 22.2 KiB (0%)

Language                                 : English

Default                                  : No

Forced                                   : No



Source Information

Amazon WEB-DL

Discussion

Comments 0

Post Your Comment

Files in this torrent

FILENAMESIZE
Condor.S01E01.What.Loneliness.1080p.10bit.AMZN.WEB-DL.DDP5.1.HEVC-Vyndros.mkv973.5 MB
Condor.S01E02.The.Solution.to.All.Problems.1080p.10bit.AMZN.WEB-DL.DDP5.1.HEVC-Vyndros.mkv863.9 MB
Condor.S01E03.A.Good.Patriot.1080p.10bit.AMZN.WEB-DL.DDP5.1.HEVC-Vyndros.mkv769.7 MB
Condor.S01E04.Trapped.in.History.1080p.10bit.AMZN.WEB-DL.DDP5.1.HEVC-Vyndros.mkv787.8 MB
Condor.S01E05.A.Diamond.with.a.Flaw.1080p.10bit.AMZN.WEB-DL.DDP5.1.HEVC-Vyndros.mkv759.8 MB
Condor.S01E06.No.Such.Thing.1080p.10bit.AMZN.WEB-DL.DDP5.1.HEVC-Vyndros.mkv778.9 MB
Condor.S01E07.Within.a.Dark.Wood.1080p.10bit.AMZN.WEB-DL.DDP5.1.HEVC-Vyndros.mkv1 GB
Condor.S01E08.A.Question.of.Compromise.1080p.10bit.AMZN.WEB-DL.DDP5.1.HEVC-Vyndros.mkv865.1 MB
Condor.S01E09.Death.is.the.Harvest.1080p.10bit.AMZN.WEB-DL.DDP5.1.HEVC-Vyndros.mkv791.3 MB
Condor.S01E10.Mistrust.Blossoms.1080p.10bit.AMZN.WEB-DL.DDP5.1.HEVC-Vyndros.mkv760.9 MB

Alternative Torrents for 'Condor Season HEVC bit DDP Vyndros'.

There are no alternative torrents found.