13 Reasons Why (2017) S01-S04 (4Kto1080p NF Webrip X265 10bit EAC3 5.1 - Ainz)[TAoE]

Torrent Details

13 Reasons Why (2017) S01-S04 (4Kto1080p NF Webrip x265 10bit EAC3 5.1 - Ainz)<span style=color:#fc9c6d>[TAoE]</span>
13 Reasons Why (2017) S01-S04 (4Kto1080p NF Webrip x265 10bit EAC3 5.1 - Ainz)<span style=color:#fc9c6d>[TAoE]</span>

NAME
13 Reasons Why (2017) S01-S04 (4Kto1080p NF Webrip x265 10bit EAC3 5.1 - Ainz)[TAoE].torrent
CATEGORY
Television
INFOHASH
489dae53b7984fcb2d6d5eee9c44da42fdcbe7db
SIZE
68.4 GB in 49 files
ADDED
Uploaded on 29-07-2020 by our crawler pet called "Spidey".
SWARM
0 seeders & 0 peers
RATING
No votes yet.

Please login to vote for this torrent.


Description



Hello everyone,

We are TAoE, a small team of passionate encoders who love encoding. We try our best to provide you with high quality releases.



Requests for movies and shows are welcome.

We have a form for encode requests which can be found here

Encode requests form

submit your request and it will be added to our encoding request list

You can view our encoding request list here

Encode requests list





When or if we encode it will depend on if we can obtain a good source to encode with and

if one of the TAoE encoders chooses to encode it. Unfortunately we are not able to encode everything,

new members are welcome as that helps us encode more content!



If you would like to join TAoE submit your request here!

TAoE member applications form









13 Reasons Why (2017) IMDB































Synopsis



Follows teenager Clay Jensen, in his quest to uncover the story behind his classmate and crush, Hannah, and her decision to end her life.



Media Information



General

Unique ID                                : 140878409111640264295263601317567178430 (0x69FC31D5680EA1118F4F7DDB4126A6BE)

Complete name                            : 13 Reasons Why (2017) S01E01 Tape 1, Side A (4Kto1080p NF Webrip x265 10bit AC3 5.1 - Ainz)[TAoE].mkv

Format                                   : Matroska

Format version                           : Version 4

File size                                : 1.79 GiB

Duration                                 : 52 min 57 s

Overall bit rate                         : 4 851 kb/s

Writing application                      : Lavf58.29.100

Writing library                          : Lavf58.29.100

ErrorDetectionType                       : Per level 1



Video

ID                                       : 1

Format                                   : HEVC

Format/Info                              : High Efficiency Video Coding

Format profile                           : Main [email protected]@Main

Codec ID                                 : V_MPEGH/ISO/HEVC

Duration                                 : 52 min 38 s

Bit rate                                 : 4 490 kb/s

Width                                    : 1 920 pixels

Height                                   : 1 080 pixels

Display aspect ratio                     : 16:9

Frame rate mode                          : Constant

Frame rate                               : 23.976 (24000/1001) FPS

Color space                              : YUV

Chroma subsampling                       : 4:2:0

Bit depth                                : 10 bits

Bits/(Pixel*Frame)                       : 0.090

Stream size                              : 1.65 GiB (92%)

Title                                    : Encoded by Ainz for TAoE using Shinguru V1.2

Writing library                          : x265 3.2+35-acc5d16999e2:[Windows][GCC 9.2.1][64 bit] 10bit

Encoding settings                        : cpuid=1111039 / frame-threads=4 / numa-pools=24 / wpp / no-pmode / no-pme / no-psnr / no-ssim / log-level=2 / input-csp=1 / input-res=1920x1080 / interlace=0 / total-frames=0 / level-idc=0 / high-tier=1 / uhd-bd=0 / ref=4 / no-allow-non-conformance / no-repeat-headers / annexb / no-aud / no-hrd / info / hash=0 / no-temporal-layers / open-gop / min-keyint=23 / keyint=250 / gop-lookahead=0 / bframes=8 / b-adapt=2 / b-pyramid / bframe-bias=0 / rc-lookahead=80 / lookahead-slices=4 / scenecut=40 / hist-scenecut=0 / radl=0 / no-splice / no-intra-refresh / ctu=64 / min-cu-size=8 / no-rect / no-amp / max-tu-size=32 / tu-inter-depth=1 / tu-intra-depth=1 / limit-tu=0 / rdoq-level=2 / dynamic-rd=0.00 / no-ssim-rd / signhide / no-tskip / nr-intra=0 / nr-inter=0 / no-constrained-intra / no-strong-intra-smoothing / max-merge=3 / limit-refs=3 / limit-modes / me=3 / subme=5 / merange=57 / temporal-mvp / no-frame-dup / no-hme / weightp / no-weightb / no-analyze-src-pics / deblock=0:0 / sao / no-sao-non-deblock / rd=4 / selective-sao=4 / no-early-skip / rskip / no-fast-intra / no-tskip-fast / no-cu-lossless / no-b-intra / no-splitrd-skip / rdpenalty=0 / psy-rd=1.30 / psy-rdoq=2.00 / no-rd-refine / no-lossless / cbqpoffs=0 / crqpoffs=0 / rc=crf / crf=19.0 / qcomp=0.60 / qpstep=4 / stats-write=0 / stats-read=0 / ipratio=1.40 / pbratio=1.30 / aq-mode=4 / aq-strength=1.10 / cutree / zone-count=0 / no-strict-cbr / qg-size=32 / no-rc-grain / qpmax=69 / qpmin=0 / no-const-vbv / sar=1 / overscan=0 / videoformat=5 / range=0 / colorprim=2 / transfer=2 / colormatrix=2 / chromaloc=0 / display-window=0 / cll=0,0 / min-luma=0 / max-luma=1023 / log2-max-poc-lsb=8 / vui-timing-info / vui-hrd-info / slices=1 / no-opt-qp-pps / no-opt-ref-list-length-pps / no-multi-pass-opt-rps / scenecut-bias=0.05 / hist-threshold=0.01 / no-opt-cu-delta-qp / no-aq-motion / no-hdr10 / no-hdr10-opt / no-dhdr10-opt / no-idr-recovery-sei / analysis-reuse-level=0 / analysis-save-reuse-level=0 / analysis-load-reuse-level=0 / scale-factor=0 / refine-intra=0 / refine-inter=0 / refine-mv=1 / refine-ctu-distortion=0 / no-limit-sao / ctu-info=0 / no-lowpass-dct / refine-analysis-type=0 / copy-pic=1 / max-ausize-factor=1.0 / no-dynamic-refine / no-single-sei / no-hevc-aq / no-svt / no-field / qp-adaptation-range=1.00 / no-scenecut-aware-qpconformance-window-offsets / right=0 / bottom=0

Default                                  : Yes

Forced                                   : No

Color range                              : Limited



Audio

ID                                       : 7

Format                                   : AC-3

Format/Info                              : Audio Coding 3

Commercial name                          : Dolby Digital

Codec ID                                 : A_AC3

Duration                                 : 52 min 57 s

Bit rate mode                            : Constant

Bit rate                                 : 384 kb/s

Channel(s)                               : 6 channels

Channel layout                           : L R C LFE Ls Rs

Sampling rate                            : 48.0 kHz

Frame rate                               : 31.250 FPS (1536 SPF)

Bit depth                                : 32 bits

Compression mode                         : Lossy

Stream size                              : 145 MiB (8%)

Language                                 : English

Service kind                             : Complete Main

Default                                  : Yes

Forced                                   : No



Text #1

ID                                       : 2

Format                                   : UTF-8

Codec ID                                 : S_TEXT/UTF8

Codec ID/Info                            : UTF-8 Plain Text

Duration                                 : 51 min 55 s

Bit rate                                 : 72 b/s

Count of elements                        : 876

Stream size                              : 27.5 KiB (0%)

Language                                 : English

Default                                  : Yes

Forced                                   : No



Text #2

ID                                       : 3

Format                                   : UTF-8

Codec ID                                 : S_TEXT/UTF8

Codec ID/Info                            : UTF-8 Plain Text

Duration                                 : 50 min 33 s

Bit rate                                 : 59 b/s

Count of elements                        : 773

Stream size                              : 21.9 KiB (0%)

Language                                 : Spanish

Default                                  : No

Forced                                   : No



Text #3

ID                                       : 4

Format                                   : UTF-8

Codec ID                                 : S_TEXT/UTF8

Codec ID/Info                            : UTF-8 Plain Text

Duration                                 : 52 min 26 s

Bit rate                                 : 59 b/s

Count of elements                        : 774

Stream size                              : 22.9 KiB (0%)

Language                                 : French

Default                                  : No

Forced                                   : No



Text #4

ID                                       : 5

Format                                   : UTF-8

Codec ID                                 : S_TEXT/UTF8

Codec ID/Info                            : UTF-8 Plain Text

Duration                                 : 52 min 14 s

Bit rate                                 : 54 b/s

Count of elements                        : 785

Stream size                              : 21.0 KiB (0%)

Title                                    : Traditional

Language                                 : Chinese

Default                                  : No

Forced                                   : No



Text #5

ID                                       : 6

Format                                   : UTF-8

Codec ID                                 : S_TEXT/UTF8

Codec ID/Info                            : UTF-8 Plain Text

Duration                                 : 52 min 14 s

Bit rate                                 : 53 b/s

Count of elements                        : 785

Stream size                              : 20.4 KiB (0%)

Title                                    : Simplified

Language                                 : Chinese

Default                                  : No

Forced                                   : No













Source

2160p NF WEB-DL NTb

Discussion

Comments 0

Post Your Comment

Files in this torrent

FILENAMESIZE
Season 01/13 Reasons Why (2017) S01E01 Tape 1, Side A (4Kto1080p NF Webrip x265 10bit AC3 5.1 - Ainz)[TAoE].mkv1.8 GB
Season 01/13 Reasons Why (2017) S01E02 Tape 1, Side B (4Kto1080p NF Webrip x265 10bit AC3 5.1 - Ainz)[TAoE].mkv1.3 GB
Season 01/13 Reasons Why (2017) S01E03 Tape 2, Side A (4Kto1080p NF Webrip x265 10bit AC3 5.1 - Ainz)[TAoE].mkv1.6 GB
Season 01/13 Reasons Why (2017) S01E04 Tape 2, Side B (4Kto1080p NF Webrip x265 10bit AC3 5.1 - Ainz)[TAoE].mkv1.5 GB
Season 01/13 Reasons Why (2017) S01E05 Tape 3, Side A (4Kto1080p NF Webrip x265 10bit AC3 5.1 - Ainz)[TAoE].mkv1.7 GB
Season 01/13 Reasons Why (2017) S01E06 Tape 3, Side B (4Kto1080p NF Webrip x265 10bit AC3 5.1 - Ainz)[TAoE].mkv1.2 GB
Season 01/13 Reasons Why (2017) S01E07 Tape 4, Side A (4Kto1080p NF Webrip x265 10bit AC3 5.1 - Ainz)[TAoE].mkv1.5 GB
Season 01/13 Reasons Why (2017) S01E08 Tape 4, Side B (4Kto1080p NF Webrip x265 10bit AC3 5.1 - Ainz)[TAoE].mkv1.5 GB
Season 01/13 Reasons Why (2017) S01E09 Tape 5, Side A (4Kto1080p NF Webrip x265 10bit AC3 5.1 - Ainz)[TAoE].mkv1.4 GB
Season 01/13 Reasons Why (2017) S01E10 Tape 5, Side B (4Kto1080p NF Webrip x265 10bit AC3 5.1 - Ainz)[TAoE].mkv1.4 GB
Season 01/13 Reasons Why (2017) S01E11 Tape 6, Side A (4Kto1080p NF Webrip x265 10bit AC3 5.1 - Ainz)[TAoE].mkv1.8 GB
Season 01/13 Reasons Why (2017) S01E12 Tape 6, Side B (4Kto1080p NF Webrip x265 10bit AC3 5.1 - Ainz)[TAoE].mkv2 GB
Season 01/13 Reasons Why (2017) S01E13 Tape 7, Side A (4Kto1080p NF Webrip x265 10bit AC3 5.1 - Ainz)[TAoE].mkv1.6 GB
Season 02/13 Reasons Why (2017) S02E01 The First Polaroid (4kto1080p NF Webrip x265 10bit AC3 5.1 - Ainz)[TAoE].mkv2.3 GB
Season 02/13 Reasons Why (2017) S02E02 Two Girls Kissing (4kto1080p NF Webrip x265 10bit AC3 5.1 - Ainz)[TAoE].mkv2.7 GB
Season 02/13 Reasons Why (2017) S02E03 The Drunk Slut (4kto1080p NF Webrip x265 10bit AC3 5.1 - Ainz)[TAoE].mkv2 GB
Season 02/13 Reasons Why (2017) S02E04 The Second Polaroid (4kto1080p NF Webrip x265 10bit AC3 5.1 - Ainz)[TAoE].mkv1.7 GB
Season 02/13 Reasons Why (2017) S02E05 The Chalk Machine (4kto1080p NF Webrip x265 10bit AC3 5.1 - Ainz)[TAoE].mkv1.9 GB
Season 02/13 Reasons Why (2017) S02E06 The Smile at the End of the Dock (4kto1080p NF Webrip x265 10bit AC3 5.1 - Ainz)[TAoE].mkv1.8 GB
Season 02/13 Reasons Why (2017) S02E07 The Third Polaroid (4kto1080p NF Webrip x265 10bit AC3 5.1 - Ainz)[TAoE].mkv1.4 GB
Season 02/13 Reasons Why (2017) S02E08 The Little Girl (4kto1080p NF Webrip x265 10bit AC3 5.1 - Ainz)[TAoE].mkv1.2 GB
Season 02/13 Reasons Why (2017) S02E09 The Missing Page (4kto1080p NF Webrip x265 10bit AC3 5.1 - Ainz)[TAoE].mkv1 GB
Season 02/13 Reasons Why (2017) S02E10 Smile, Bitches (4kto1080p NF Webrip x265 10bit AC3 5.1 - Ainz)[TAoE].mkv945.1 MB
Season 02/13 Reasons Why (2017) S02E11 Bryce and Chloe (4kto1080p NF Webrip x265 10bit AC3 5.1 - Ainz)[TAoE].mkv1 GB
Season 02/13 Reasons Why (2017) S02E12 The Box of Polaroids (4kto1080p NF Webrip x265 10bit AC3 5.1 - Ainz)[TAoE].mkv946.2 MB
Season 02/13 Reasons Why (2017) S02E13 Bye (4kto1080p NF Webrip x265 10bit AC3 5.1 - Ainz)[TAoE].mkv1.3 GB
Season 03/13 Reasons Why (2017) S03E01 Yeah. I'm the New Girl (4Kto1080p NF Webrip x265 10bit EAC3 5.1 - Ainz)[TAoE].mkv1.2 GB
Season 03/13 Reasons Why (2017) S03E02 If You're Breathing, You're a Liar (4Kto1080p NF Webrip x265 10bit EAC3 5.1 - Ainz)[TAoE].mkv1.6 GB
Season 03/13 Reasons Why (2017) S03E03 The Good Person Is Indistinguishable from the Bad (4Kto1080p NF Webrip x265 10bit EAC3 5.1 - Ainz)[TAoE].mkv1.5 GB
Season 03/13 Reasons Why (2017) S03E04 Angry, Young and Man (4Kto1080p NF Webrip x265 10bit EAC3 5.1 - Ainz)[TAoE].mkv1.2 GB
Season 03/13 Reasons Why (2017) S03E05 Nobody's Clean (4Kto1080p NF Webrip x265 10bit EAC3 5.1 - Ainz)[TAoE].mkv1.3 GB
Season 03/13 Reasons Why (2017) S03E06 You Can Tell the Heart of a Man by How He Grieves (4Kto1080p NF Webrip x265 10bit EAC3 5.1 - Ainz)[TAoE].mkv1.2 GB
Season 03/13 Reasons Why (2017) S03E07 There Are a Number of Problems with Clay Jensen (4Kto1080p NF Webrip x265 10bit EAC3 5.1 - Ainz)[TAoE].mkv903.1 MB
Season 03/13 Reasons Why (2017) S03E08 In High School, Even on a Good Day, It's Hard to Tell Who's on Your Side (4Kto1080p NF Webrip x265 10bit EAC3 5.1 - Ainz)[TAoE].mkv894.4 MB
Season 03/13 Reasons Why (2017) S03E09 Always Waiting for the Next Bad News (4Kto1080p NF Webrip x265 10bit EAC3 5.1 - Ainz)[TAoE].mkv1.1 GB
Season 03/13 Reasons Why (2017) S03E10 The World Closing In (4Kto1080p NF Webrip x265 10bit EAC3 5.1 - Ainz)[TAoE].mkv1006.5 MB
Season 03/13 Reasons Why (2017) S03E11 There Are a Few Things I Haven't Told You (4Kto1080p NF Webrip x265 10bit EAC3 5.1 - Ainz)[TAoE].mkv1 GB
Season 03/13 Reasons Why (2017) S03E12 And Then the Hurricane Hit (4Kto1080p NF Webrip x265 10bit EAC3 5.1 - Ainz)[TAoE].mkv1.1 GB
Season 03/13 Reasons Why (2017) S03E13 Let the Dead Bury the Dead (4Kto1080p NF Webrip x265 10bit EAC3 5.1 - Ainz)[TAoE].mkv1.3 GB
Season 04/13 Reasons Why (2017) S04E01 Winter Break (4kto1080p NF Webrip x265 10bit EAC3 5.1 - Ainz)[TAoE].mkv1.3 GB
Season 04/13 Reasons Why (2017) S04E02 College Tour (4kto1080p NF Webrip x265 10bit EAC3 5.1 - Ainz)[TAoE].mkv1.2 GB
Season 04/13 Reasons Why (2017) S04E03 Valentine's Day (4kto1080p NF Webrip x265 10bit EAC3 5.1 - Ainz)[TAoE].mkv1.3 GB
Season 04/13 Reasons Why (2017) S04E04 Senior Camping Trip (4kto1080p NF Webrip x265 10bit EAC3 5.1 - Ainz)[TAoE].mkv1.3 GB
Season 04/13 Reasons Why (2017) S04E05 House Party (4kto1080p NF Webrip x265 10bit EAC3 5.1 - Ainz)[TAoE].mkv779 MB
Season 04/13 Reasons Why (2017) S04E06 Thursday (4kto1080p NF Webrip x265 10bit EAC3 5.1 - Ainz)[TAoE].mkv1.1 GB
Season 04/13 Reasons Why (2017) S04E07 College Interview (4kto1080p NF Webrip x265 10bit EAC3 5.1 - Ainz)[TAoE].mkv1.1 GB
Season 04/13 Reasons Why (2017) S04E08 Acceptance Rejection (4kto1080p NF Webrip x265 10bit EAC3 5.1 - Ainz)[TAoE].mkv1.5 GB
Season 04/13 Reasons Why (2017) S04E09 Prom (4kto1080p NF Webrip x265 10bit EAC3 5.1 - Ainz)[TAoE].mkv1.1 GB
Season 04/13 Reasons Why (2017) S04E10 Graduation (4kto1080p NF Webrip x265 10bit EAC3 5.1 - Ainz)[TAoE].mkv1.8 GB

Alternative Torrents for 'Reasons Why SS Ktop NF bit EAC Ainz'.

TORRENT NAMEADDEDSIZESEEDSPEERSHEALTH
10/16/2020797 MB79396
10/9/20201.9 GB793150
10/9/2020766 MB292126
10/16/20203.8 GB26943
10/17/20202.2 GB20383
10/16/20202.7 GB169122
10/15/20203.1 GB1331
10/8/20202.5 GB10642
10/17/20205.5 GB10524
10/16/20201.3 GB837
10/12/202014.9 GB756
10/20/202015.6 GB7432
10/17/20202.4 GB7011
10/17/20202.7 GB657
10/19/2020787 kB647