The Hater-Sala Samobójców Hejter (2020) ITA-POL Ac3 5.1 BDRip 1080p H264 [ArMor]

Torrent Details


The Hater-Sala samobójców Hejter (2020) ITA-POL Ac3 5.1 BDRip 1080p H264 <span style=color:#fc9c6d>[ArMor]</span>

NAME
The Hater-Sala samobójców Hejter (2020) ITA-POL Ac3 5.1 BDRip 1080p H264 [ArMor].torrent
CATEGORY
Movies
INFOHASH
5b1802f96a5a6fc77e6eb13685a4d06a7287a8e4
SIZE
4.6 GB in 4 files
ADDED
Uploaded on 29-07-2020 by our crawler pet called "Spidey".
SWARM
0 seeders & 0 peers
RATING
No votes yet.

Please login to vote for this torrent.


Description





Polish Hejter

Directed by Jan Komasa

Screenplay by Mateusz Pacewicz

Based on Suicide Room, by Jan Komasa

Production companies Naima Film

Distributed by Kino Świat

Release date 6 March 2020 (Poland)

Running time 136 minutes

Country Poland

Language Polish



Plot: Tomasz Giemza, uno studente di legge caduto in disgrazia ossessionato da una famiglia progressista di classe superiore Krasucki, trova lavoro in una società di pubbliche relazioni. Quello che sembrava solo un altro incarico si rivela essere una fattoria di troll in rapido sviluppo, dove eccelle nel business della diffusione di notizie false e dell'odio online contro personalità famose, celebrità di Internet e politici. Con il tempo, Tomasz inizia a usare le sue abilità appena acquisite per inseguire, molestare e infine controllare i Krasuckis.



Tomasz Giemza, a disgraced law student obsessed with a progressive, upper-class Krasucki family takes a job at a public relations company. What seemed like just another assignment turns out to be a quickly developing troll farm, where he excels in the business of spreading fake news and online hatred targeting famous personalities, internet celebrities and politicians. With time, Tomasz begins to use his newly acquired skills in order to stalk, harass and ultimately control the Krasuckis.





















General

Unique ID                                : 235167875211939554667111392849095934662 (0xB0EBAF6EB28E223EB713C82D2BADC2C6)

Complete name                            : The Hater-Sala samobójców Hejter (2020) ITA-POL Ac3 5.1 BDRip 1080p H264 [ArMor].mkv

Format                                   : Matroska

Format version                           : Version 4

File size                                : 4.58 GiB

Duration                                 : 2 h 15 min

Overall bit rate                         : 4 846 kb/s

Encoded date                             : UTC 2020-07-29 15:56:51

Writing application                      : mkvmerge v15.0.0 ('Duel with the Devil') 64-bit

Writing library                          : libebml v1.3.5 + libmatroska v1.4.5



Video

ID                                       : 1

Format                                   : AVC

Format/Info                              : Advanced Video Codec

Format profile                           : [email protected]

Format settings                          : CABAC / 4 Ref Frames

Format settings, CABAC                   : Yes

Format settings, Reference frames        : 4 frames

Codec ID                                 : V_MPEG4/ISO/AVC

Duration                                 : 2 h 15 min

Bit rate                                 : 4 000 kb/s

Width                                    : 1 920 pixels

Height                                   : 804 pixels

Display aspect ratio                     : 2.40:1

Frame rate mode                          : Constant

Frame rate                               : 24.000 FPS

Color space                              : YUV

Chroma subsampling                       : 4:2:0

Bit depth                                : 8 bits

Scan type                                : Progressive

Bits/(Pixel*Frame)                       : 0.108

Stream size                              : 3.73 GiB (81%)

Writing library                          : x264 core 157 r2935 545de2f

Encoding settings                        : cabac=1 / ref=2 / deblock=1:0:0 / analyse=0x1:0x111 / me=hex / subme=6 / psy=1 / psy_rd=1.00:0.00 / mixed_ref=1 / me_range=16 / chroma_me=1 / trellis=1 / 8x8dct=0 / cqm=0 / deadzone=21,11 / fast_pskip=1 / chroma_qp_offset=-2 / threads=18 / lookahead_threads=3 / sliced_threads=0 / nr=0 / decimate=1 / interlaced=0 / bluray_compat=0 / constrained_intra=0 / bframes=3 / b_pyramid=2 / b_adapt=1 / b_bias=0 / direct=1 / weightb=1 / open_gop=0 / weightp=1 / keyint=240 / keyint_min=24 / scenecut=40 / intra_refresh=0 / rc_lookahead=30 / rc=abr / mbtree=1 / bitrate=4000 / ratetol=1.0 / qcomp=0.60 / qpmin=0 / qpmax=69 / qpstep=4 / vbv_maxrate=50000 / vbv_bufsize=62500 / nal_hrd=none / filler=0 / ip_ratio=1.40 / aq=1:1.00

Default                                  : No

Forced                                   : No

Color range                              : Limited

Color primaries                          : BT.709

Transfer characteristics                 : BT.709

Matrix coefficients                      : BT.709



Audio #1

ID                                       : 2

Format                                   : AC-3

Format/Info                              : Audio Coding 3

Commercial name                          : Dolby Digital

Codec ID                                 : A_AC3

Duration                                 : 2 h 15 min

Bit rate mode                            : Constant

Bit rate                                 : 448 kb/s

Channel(s)                               : 6 channels

Channel layout                           : L R C LFE Ls Rs

Sampling rate                            : 48.0 kHz

Frame rate                               : 31.250 FPS (1536 SPF)

Compression mode                         : Lossy

Stream size                              : 433 MiB (9%)

Language                                 : Italian

Service kind                             : Complete Main

Default                                  : Yes

Forced                                   : No



Audio #2

ID                                       : 3

Format                                   : AC-3

Format/Info                              : Audio Coding 3

Commercial name                          : Dolby Digital

Codec ID                                 : A_AC3

Duration                                 : 2 h 15 min

Bit rate mode                            : Constant

Bit rate                                 : 448 kb/s

Channel(s)                               : 6 channels

Channel layout                           : L R C LFE Ls Rs

Sampling rate                            : 48.0 kHz

Frame rate                               : 31.250 FPS (1536 SPF)

Compression mode                         : Lossy

Stream size                              : 433 MiB (9%)

Language                                 : Polish

Service kind                             : Complete Main

Default                                  : No

Forced                                   : No

Discussion

Comments 0

Post Your Comment

Files in this torrent

FILENAMESIZE
2465764gfhz.jpg95.4 KB
The Hater-Sala samobójców Hejter (2020) ITA-POL Ac3 5.1 BDRip 1080p H264 [ArMor].mkv4.6 GB
The.Hater.2020.ITA-ENG.Bluray.1080p_track5_ita_forced.srt5.3 KB
The.Hater.2020.ITA-ENG.Bluray.1080p_track6_ita.srt105.3 KB

Alternative Torrents for 'HaterSala samobójców Hejter POL'.

There are no alternative torrents found.