Selena Gomez - Come & Get It [Music Video] 720p [Sbyky]

Torrent Details


Selena Gomez - Come & Get It [Music Video] 720p [Sbyky]

NAME
Selena Gomez - Come & Get It [Music Video] 720p [Sbyky].torrent
CATEGORY
Music
INFOHASH
6d50a047b64d65bc9a8df94523c53df0526adcf8
SIZE
66 MB in 1 file
ADDED
Uploaded on 10-05-2013 by our crawler pet called "Spidey".
SWARM
0 seeders & 0 peers
RATING
No votes yet.

Please login to vote for this torrent.


Description

General
Complete name : Selena Gomez - Come & Get It [Music Video] 720p [Sbyky].mp4
Format : MPEG-4
Format profile : Base Media / Version 2
Codec ID : mp42
File size : 66.2 MiB
Duration : 4mn 49s
Overall bit rate mode : Variable
Overall bit rate : 1 920 Kbps
Encoded date : UTC 2013-05-02 02:16:33
Tagged date : UTC 2013-05-02 02:16:33

Video
ID : 1
Format : AVC
Format/Info : Advanced Video Codec
Format profile : [email protected]
Format settings, CABAC : Yes
Format settings, ReFrames : 1 frame
Codec ID : avc1
Codec ID/Info : Advanced Video Coding
Duration : 4mn 49s
Bit rate : 1 725 Kbps
Maximum bit rate : 5 603 Kbps
Width : 1 280 pixels
Height : 720 pixels
Display aspect ratio : 16:9
Frame rate mode : Constant
Frame rate : 23.976 fps
Color space : YUV
Chroma subsampling : 4:2:0
Bit depth : 8 bits
Scan type : Progressive
Bits/(Pixel*Frame) : 0.078
Stream size : 59.5 MiB (90%)
Tagged date : UTC 2013-05-02 02:16:39

Audio
ID : 2
Format : AAC
Format/Info : Advanced Audio Codec
Format profile : LC
Codec ID : 40
Duration : 4mn 49s
Bit rate mode : Variable
Bit rate : 192 Kbps
Maximum bit rate : 201 Kbps
Channel(s) : 2 channels
Channel positions : Front: L R
Sampling rate : 44.1 KHz
Compression mode : Lossy
Stream size : 6.62 MiB (10%)
Title : IsoMedia File Produced by Google, 5-11-2011
Encoded date : UTC 2013-05-02 02:16:37
Tagged date : UTC 2013-05-02 02:16:39

Shared By Sbyky

Discussion

Comments 0

Post Your Comment

Files in this torrent

FILENAMESIZE
Selena Gomez - Come & Get It [Music Video] 720p [Sbyky].mp466.2 MB

Alternative Torrents for 'Selena Gomez Come Get It Music Video Sbyky'.

TORRENT NAMEADDEDSIZESEEDSPEERSHEALTH
5/10/2013132 MB00
5/10/201366 MB00