The Umbrella Academy (2020) S02 Complete 720p NF WEB-DL [Hindi + English] - DD2.0 ESubs 4GB - MOVCR

Torrent Details

 The Umbrella Academy (2020) S02 Complete 720p NF WEB-DL [Hindi + English] - DD2.0 ESubs 4GB <span style=color:#fc9c6d>- MOVCR</span>
 The Umbrella Academy (2020) S02 Complete 720p NF WEB-DL [Hindi + English] - DD2.0 ESubs 4GB <span style=color:#fc9c6d>- MOVCR</span>

NAME
The Umbrella Academy (2020) S02 Complete 720p NF WEB-DL [Hindi + English] - DD2.0 ESubs 4GB - MOVCR.torrent
CATEGORY
Television
INFOHASH
a59e54834333a7a46e32b1ae37d502302632660c
SIZE
4.1 GB in 11 files
ADDED
Uploaded on 31-07-2020 by our crawler pet called "Spidey".
SWARM
0 seeders & 0 peers
RATING
No votes yet.

Please login to vote for this torrent.


Description

https://MovCr.st































IMDB Link : https://www.imdb.com/title/tt1312171/











Video

ID                          : 1

Format                      : AVC

Format/Info                 : Advanced Video Codec

Format profile              : [email protected]

Format settings             : CABAC / 4 Ref Frames

Format settings, CABAC      : Yes

Format settings, Reference  : 4 frames

Codec ID                    : V_MPEG4/ISO/AVC

Duration                    : 48 min 55 s

Bit rate mode               : Variable

Bit rate                    : 999 kb/s

Maximum bit rate            : 14.0 Mb/s

Width                       : 1 280 pixels

Height                      : 720 pixels

Display aspect ratio        : 16:9

Frame rate mode             : Constant

Frame rate                  : 23.976 (24000/1001) FPS

Color space                 : YUV

Chroma subsampling          : 4:2:0

Bit depth                   : 8 bits

Scan type                   : Progressive

Bits/(Pixel*Frame)          : 0.045

Stream size                 : 350 MiB (78%)

Writing library             : x264 core 148 r2722 1b0121b

Encoding settings           : cabac=1 / ref=4 / deblock=1:0:0 / analyse=0x3:0x111 / me=umh / subme=10 / psy=1 / psy_rd=1.00:0.00 / mixed_ref=1 / me_range=120 / chroma_me=1 / trellis=2 / 8x8dct=1 / cqm=0 / deadzone=21,11 / fast_pskip=1 / chroma_qp_offset=-2 / threads=6 / lookahead_threads=1 / sliced_threads=0 / nr=0 / decimate=1 / interlaced=0 / bluray_compat=0 / stitchable=1 / constrained_intra=0 / bframes=16 / b_pyramid=2 / b_adapt=2 / b_bias=0 / direct=3 / weightb=1 / open_gop=0 / weightp=2 / keyint=240 / keyint_min=121 / scenecut=0 / intra_refresh=0 / rc_lookahead=240 / rc=crf / mbtree=1 / crf=21.0 / qcomp=0.50 / qpmin=6 / qpmax=51 / qpstep=4 / vbv_maxrate=14000 / vbv_bufsize=14000 / crf_max=0.0 / nal_hrd=vbr / filler=0 / ip_ratio=1.40 / aq=1:0.80

Default                     : Yes

Forced                      : No

Statistics Tags Issue       : mkvmerge v48.0.0 ('Fortress Around Your Heart') 64-bit 2020-07-31 11:43:37 / mkvmerge v48.0.0 ('Fortress Around Your Heart') 64-bit 2020-07-31 11:43:37 / UTC 2020-07-29 17:34:49

FromStats_BitRate           : 1022890

FromStats_Duration          : 00:48:54.515000000

FromStats_FrameCount        : 70358

FromStats_StreamSize        : 375210777



Audio #1

ID                          : 2

Format                      : E-AC-3

Format/Info                 : Enhanced AC-3

Commercial name             : Dolby Digital Plus

Codec ID                    : A_EAC3

Duration                    : 48 min 55 s

Bit rate mode               : Constant

Bit rate                    : 128 kb/s

Channel(s)                  : 2 channels

Channel layout              : L R

Sampling rate               : 48.0 kHz

Frame rate                  : 31.250 FPS (1536 SPF)

Compression mode            : Lossy

Stream size                 : 44.8 MiB (10%)

Language                    : Hindi

Service kind                : Complete Main

Default                     : Yes

Forced                      : No

Encoded date                : UTC 2020-07-29 17:32:12

Statistics Tags Issue       : mkvmerge v48.0.0 ('Fortress Around Your Heart') 64-bit 2020-07-31 11:43:37 / mkvmerge v48.0.0 ('Fortress Around Your Heart') 64-bit 2020-07-31 11:43:37 / UTC 2020-07-29 17:34:49

FromStats_BitRate           : 128000

FromStats_Duration          : 00:48:55.584000000

FromStats_FrameCount        : 91737

FromStats_StreamSize        : 46969344



Audio #2

ID                          : 3

Format                      : E-AC-3

Format/Info                 : Enhanced AC-3

Commercial name             : Dolby Digital Plus

Codec ID                    : A_EAC3

Duration                    : 48 min 55 s

Bit rate mode               : Constant

Bit rate                    : 128 kb/s

Channel(s)                  : 2 channels

Channel layout              : L R

Sampling rate               : 48.0 kHz

Frame rate                  : 31.250 FPS (1536 SPF)

Compression mode            : Lossy

Stream size                 : 44.8 MiB (10%)

Language                    : English

Service kind                : Complete Main

Default                     : No

Forced                      : No

Encoded date                : UTC 2020-07-29 17:34:49

Statistics Tags Issue       : mkvmerge v48.0.0 ('Fortress Around Your Heart') 64-bit 2020-07-31 11:43:37 / mkvmerge v48.0.0 ('Fortress Around Your Heart') 64-bit 2020-07-31 11:43:37 / UTC 2020-07-29 17:34:49

FromStats_BitRate           : 128000

FromStats_Duration          : 00:48:55.584000000

FromStats_FrameCount        : 91737

FromStats_StreamSize        : 46969344



Text #1

ID                          : 4

Format                      : UTF-8

Codec ID                    : S_TEXT/UTF8

Codec ID/Info               : UTF-8 Plain Text

Title                       : English_Forced

Language                    : English

Default                     : Yes

Forced                      : Yes

Statistics Tags Issue       : mkvmerge v48.0.0 ('Fortress Around Your Heart') 64-bit 2020-07-31 11:43:37 / mkvmerge v48.0.0 ('Fortress Around Your Heart') 64-bit 2020-07-31 11:43:37 / UTC 2020-07-29 17:34:49

FromStats_BitRate           : 89

FromStats_Duration          : 00:00:01.960000000

FromStats_FrameCount        : 1

FromStats_StreamSize        : 22



Text #2

ID                          : 5

Format                      : UTF-8

Codec ID                    : S_TEXT/UTF8

Codec ID/Info               : UTF-8 Plain Text

Title                       : English_Forced

Language                    : English

Default                     : No

Forced                      : Yes

Statistics Tags Issue       : mkvmerge v48.0.0 ('Fortress Around Your Heart') 64-bit 2020-07-31 11:43:37 / mkvmerge v48.0.0 ('Fortress Around Your Heart') 64-bit 2020-07-31 11:43:37 / UTC 2020-07-29 17:34:49

FromStats_BitRate           : 89

FromStats_Duration          : 00:00:01.960000000

FromStats_FrameCount        : 1

FromStats_StreamSize        : 22



Text #3

ID                          : 6

Format                      : UTF-8

Codec ID                    : S_TEXT/UTF8

Codec ID/Info               : UTF-8 Plain Text

Title                       : English_Full

Language                    : English

Default                     : No

Forced                      : No

Statistics Tags Issue       : mkvmerge v48.0.0 ('Fortress Around Your Heart') 64-bit 2020-07-31 11:43:37 / mkvmerge v48.0.0 ('Fortress Around Your Heart') 64-bit 2020-07-31 11:43:37 / UTC 2020-07-29 17:34:49

FromStats_BitRate           : 73

FromStats_Duration          : 00:46:31.831000000

FromStats_FrameCount        : 850

FromStats_StreamSize        : 25608



Text #4

ID                          : 7

Format                      : UTF-8

Codec ID                    : S_TEXT/UTF8

Codec ID/Info               : UTF-8 Plain Text

Title                       : English_Full

Language                    : English

Default                     : No

Forced                      : No

Statistics Tags Issue       : mkvmerge v48.0.0 ('Fortress Around Your Heart') 64-bit 2020-07-31 11:43:37 / mkvmerge v48.0.0 ('Fortress Around Your Heart') 64-bit 2020-07-31 11:43:37 / UTC 2020-07-29 17:34:49

FromStats_BitRate           : 73

FromStats_Duration          : 00:46:31.831000000

FromStats_FrameCount        : 850

FromStats_StreamSize        : 25608



























Discussion

Comments 0

Post Your Comment

Files in this torrent

FILENAMESIZE
The.Umbrella.Academy.S02E01.Right.Back.Where.We.Started.720p.NF.WEB-DL.DD+2.0.x264- MovCr.st.mkv483.4 MB
The.Umbrella.Academy.S02E02.The.Frankel.Footage.720p.NF.WEB-DL.DD+2.0.x264- MovCr.st.mkv334.2 MB
The.Umbrella.Academy.S02E03.The.Swedish.Job.720p.NF.WEB-DL.DD+2.0.x264- MovCr.st.mkv473 MB
The.Umbrella.Academy.S02E04.The.Majestic.12.720p.NF.WEB-DL.DD+2.0.x264- MovCr.st.mkv448.2 MB
The.Umbrella.Academy.S02E05.Valhalla.720p.NF.WEB-DL.DD+2.0.x264- MovCr.st.mkv370.7 MB
The.Umbrella.Academy.S02E06.A.Light.Supper.720p.NF.WEB-DL.DD+2.0.x264- MovCr.st.mkv388.1 MB
The.Umbrella.Academy.S02E07.Öga.for.Öga.720p.NF.WEB-DL.DD+2.0.x264- MovCr.st.mkv472.8 MB
The.Umbrella.Academy.S02E08.The.Seven.Stages.720p.NF.WEB-DL.DD+2.0.x264- MovCr.st.mkv296.8 MB
The.Umbrella.Academy.S02E09.743.720p.NF.WEB-DL.DD+2.0.x264- MovCr.st.mkv441.1 MB
The.Umbrella.Academy.S02E10.The.End.of.Something.720p.NF.WEB-DL.DD+2.0.x264- MovCr.st.mkv472.9 MB
Torrent_Downloaded_From_www.MovCr.st.txt218 B

Alternative Torrents for 'Umbrella Academy Complete NF Hindi English DD. ESubs'.

TORRENT NAMEADDEDSIZESEEDSPEERSHEALTH
10/24/20204.1 GB20144340
10/22/20204.8 GB15693997
10/22/20203.7 GB14612722
10/16/20202.2 GB1290231
10/10/20204.1 GB1127987
10/9/20202.7 GB1102690
10/24/20201.7 GB877690
10/16/2020797 MB79397
10/9/20201.9 GB793164
10/9/20202.9 GB785669
10/24/20202.1 GB775453
10/21/20204.4 GB553614
10/21/20204.4 GB53772
Yesterday1.2 GB442335
10/27/20201.5 GB412546