Silverado (1985) (1080p BDRip X265 10bit EAC3 5.1 - R0b0t) [TAoE]

Torrent Details

Silverado (1985) (1080p BDRip x265 10bit EAC3 5.1 - r0b0t) <span style=color:#fc9c6d>[TAoE]</span>

NAME
Silverado (1985) (1080p BDRip x265 10bit EAC3 5.1 - r0b0t) [TAoE].torrent
CATEGORY
Movies
INFOHASH
903e32de3cb030163d62e7cd4af00922f7c5795a
SIZE
10.3 GB in 1 file
ADDED
Uploaded on 02-08-2020 by our crawler pet called "Spidey".
SWARM
1 seeders & 2 peers
RATING
No votes yet.

Please login to vote for this torrent.


Description



Hello everyone,

We are TAoE, a small team of passionate encoders who love encoding. We try our best to provide you with high quality releases.



Requests for movies and shows are welcome.

We have a form for encode requests which can be found here

Encode requests form

submit your request and it will be added to our encoding request list

You can view our encoding request list here

Encode requests list





When or if we encode it will depend on if we can obtain a good source to encode with and

if one of the TAoE encoders chooses to encode it. Unfortunately we are not able to encode everything,

new members are welcome as that helps us encode more content!



If you would like to join TAoE submit your request here!

TAoE member applications form









Silverado (1985) IMDB





















Source

Silverado.1985.1080p.Blu-ray.Remux.AVC.TrueHD.5.1.-.KRaLiMaRKo



Media Information

General

Unique ID                   : 64282194567651879304245778853046696695 (0x305C4CE323C3308497EF4E057E46BAF7)

Complete name               : Silverado (1985) (1080p BDRip x265 10bit EAC3 5.1 - r0b0t) [TAoE].mkv

Format                      : Matroska

Format version              : Version 4

File size                   : 10.3 GiB

Duration                    : 2 h 12 min

Overall bit rate            : 11.2 Mb/s

Encoded date                : UTC 2020-08-02 12:36:41

Writing application         : mkvmerge v39.0.0 ('In The Waiting Line') 64-bit

Writing library             : libebml v1.3.9 + libmatroska v1.5.2 / Lavf58.29.100



Video

ID                          : 1

Format                      : HEVC

Format/Info                 : High Efficiency Video Coding

Format profile              : Main [email protected]@Main

Codec ID                    : V_MPEGH/ISO/HEVC

Duration                    : 2 h 12 min

Bit rate                    : 10.6 Mb/s

Width                       : 1 920 pixels

Height                      : 800 pixels

Display aspect ratio        : 2.40:1

Frame rate mode             : Variable

Frame rate                  : 23.976 FPS

Color space                 : YUV

Chroma subsampling          : 4:2:0

Bit depth                   : 10 bits

Bits/(Pixel*Frame)          : 0.289

Stream size                 : 9.86 GiB (95%)

Title                       : Encoded by r0b0t for TAoE using Shinguru V1.9

Writing library             : x265 3.2+35-acc5d16999e2:[Windows][GCC 9.2.1][64 bit] 10bit

Encoding settings           : cpuid=1111039 / frame-threads=4 / numa-pools=16 / wpp / no-pmode / no-pme / no-psnr / no-ssim / log-level=2 / input-csp=1 / input-res=1920x800 / interlace=0 / total-frames=0 / level-idc=0 / high-tier=1 / uhd-bd=0 / ref=4 / no-allow-non-conformance / no-repeat-headers / annexb / no-aud / no-hrd / info / hash=0 / no-temporal-layers / open-gop / min-keyint=23 / keyint=250 / gop-lookahead=0 / bframes=8 / b-adapt=2 / b-pyramid / bframe-bias=0 / rc-lookahead=80 / lookahead-slices=4 / scenecut=40 / hist-scenecut=0 / radl=0 / no-splice / no-intra-refresh / ctu=64 / min-cu-size=8 / no-rect / no-amp / max-tu-size=32 / tu-inter-depth=1 / tu-intra-depth=1 / limit-tu=0 / rdoq-level=2 / dynamic-rd=0.00 / no-ssim-rd / signhide / no-tskip / nr-intra=0 / nr-inter=0 / no-constrained-intra / no-strong-intra-smoothing / max-merge=3 / limit-refs=3 / limit-modes / me=3 / subme=5 / merange=57 / temporal-mvp / no-frame-dup / no-hme / weightp / no-weightb / no-analyze-src-pics / deblock=0:0 / sao / no-sao-non-deblock / rd=4 / selective-sao=4 / no-early-skip / rskip / no-fast-intra / no-tskip-fast / no-cu-lossless / no-b-intra / no-splitrd-skip / rdpenalty=0 / psy-rd=1.30 / psy-rdoq=2.00 / no-rd-refine / no-lossless / cbqpoffs=0 / crqpoffs=0 / rc=crf / crf=19.0 / qcomp=0.60 / qpstep=4 / stats-write=0 / stats-read=0 / ipratio=1.40 / pbratio=1.30 / aq-mode=4 / aq-strength=1.10 / cutree / zone-count=0 / no-strict-cbr / qg-size=32 / no-rc-grain / qpmax=69 / qpmin=0 / no-const-vbv / sar=1 / overscan=0 / videoformat=5 / range=0 / colorprim=2 / transfer=2 / colormatrix=2 / chromaloc=0 / display-window=0 / cll=0,0 / min-luma=0 / max-luma=1023 / log2-max-poc-lsb=8 / vui-timing-info / vui-hrd-info / slices=1 / no-opt-qp-pps / no-opt-ref-list-length-pps / no-multi-pass-opt-rps / scenecut-bias=0.05 / hist-threshold=0.01 / no-opt-cu-delta-qp / no-aq-motion / no-hdr10 / no-hdr10-opt / no-dhdr10-opt / no-idr-recovery-sei / analysis-reuse-level=0 / analysis-save-reuse-level=0 / analysis-load-reuse-level=0 / scale-factor=0 / refine-intra=0 / refine-inter=0 / refine-mv=1 / refine-ctu-distortion=0 / no-limit-sao / ctu-info=0 / no-lowpass-dct / refine-analysis-type=0 / copy-pic=1 / max-ausize-factor=1.0 / no-dynamic-refine / no-single-sei / no-hevc-aq / no-svt / no-field / qp-adaptation-range=1.00 / no-scenecut-aware-qpconformance-window-offsets / right=0 / bottom=0

Language                    : English

Default                     : Yes

Forced                      : No

Color range                 : Limited



Audio

ID                          : 2

Format                      : E-AC-3

Format/Info                 : Enhanced AC-3

Commercial name             : Dolby Digital Plus

Codec ID                    : A_EAC3

Duration                    : 2 h 12 min

Bit rate mode               : Constant

Bit rate                    : 448 kb/s

Channel(s)                  : 6 channels

Channel layout              : L R C LFE Ls Rs

Sampling rate               : 48.0 kHz

Frame rate                  : 31.250 FPS (1536 SPF)

Compression mode            : Lossy

Stream size                 : 425 MiB (4%)

Writing library             : Lavc58.54.100 eac3

Language                    : English

Service kind                : Complete Main

Default                     : Yes

Forced                      : No



Text #1

ID                          : 3

Format                      : PGS

Muxing mode                 : zlib

Codec ID                    : S_HDMV/PGS

Codec ID/Info               : Picture based subtitle format used on BDs/HD-DVDs

Duration                    : 2 h 2 min

Bit rate                    : 17.2 kb/s

Count of elements           : 1392

Stream size                 : 15.1 MiB (0%)

Language                    : English

Default                     : Yes

Forced                      : No



Text #2

ID                          : 4

Format                      : PGS

Muxing mode                 : zlib

Codec ID                    : S_HDMV/PGS

Codec ID/Info               : Picture based subtitle format used on BDs/HD-DVDs

Duration                    : 2 h 7 min

Bit rate                    : 14.8 kb/s

Count of elements           : 1832

Stream size                 : 13.5 MiB (0%)

Title                       : SDH

Language                    : English

Default                     : No

Forced                      : No



Text #3

ID                          : 5

Format                      : PGS

Muxing mode                 : zlib

Codec ID                    : S_HDMV/PGS

Codec ID/Info               : Picture based subtitle format used on BDs/HD-DVDs

Duration                    : 2 h 2 min

Bit rate                    : 13.5 kb/s

Count of elements           : 1394

Stream size                 : 11.9 MiB (0%)

Title                       : Chinese 1

Language                    : Chinese

Default                     : No

Forced                      : No



Text #4

ID                          : 6

Format                      : PGS

Muxing mode                 : zlib

Codec ID                    : S_HDMV/PGS

Codec ID/Info               : Picture based subtitle format used on BDs/HD-DVDs

Duration                    : 2 h 2 min

Bit rate                    : 14.4 kb/s

Count of elements           : 1356

Stream size                 : 12.6 MiB (0%)

Title                       : Chinese 2

Language                    : Chinese

Default                     : No

Forced                      : No



Text #5

ID                          : 7

Format                      : PGS

Muxing mode                 : zlib

Codec ID                    : S_HDMV/PGS

Codec ID/Info               : Picture based subtitle format used on BDs/HD-DVDs

Duration                    : 2 h 2 min

Bit rate                    : 16.8 kb/s

Count of elements           : 1902

Stream size                 : 14.8 MiB (0%)

Language                    : French

Default                     : No

Forced                      : No



Text #6

ID                          : 8

Format                      : PGS

Muxing mode                 : zlib

Codec ID                    : S_HDMV/PGS

Codec ID/Info               : Picture based subtitle format used on BDs/HD-DVDs

Duration                    : 2 h 2 min

Bit rate                    : 20.7 kb/s

Count of elements           : 1394

Stream size                 : 18.2 MiB (0%)

Language                    : Indonesian

Default                     : No

Forced                      : No



Text #7

ID                          : 9

Format                      : PGS

Muxing mode                 : zlib

Codec ID                    : S_HDMV/PGS

Codec ID/Info               : Picture based subtitle format used on BDs/HD-DVDs

Duration                    : 2 h 2 min

Bit rate                    : 13.4 kb/s

Count of elements           : 1822

Stream size                 : 11.8 MiB (0%)

Language                    : Japanese

Default                     : No

Forced                      : No



Text #8

ID                          : 10

Format                      : PGS

Muxing mode                 : zlib

Codec ID                    : S_HDMV/PGS

Codec ID/Info               : Picture based subtitle format used on BDs/HD-DVDs

Duration                    : 2 h 6 min

Bit rate                    : 13.4 kb/s

Count of elements           : 1398

Stream size                 : 12.2 MiB (0%)

Language                    : Korean

Default                     : No

Forced                      : No



Text #9

ID                          : 11

Format                      : PGS

Muxing mode                 : zlib

Codec ID                    : S_HDMV/PGS

Codec ID/Info               : Picture based subtitle format used on BDs/HD-DVDs

Duration                    : 2 h 2 min

Bit rate                    : 17.3 kb/s

Count of elements           : 1754

Stream size                 : 15.2 MiB (0%)

Title                       : Brazilian

Language                    : Portuguese

Default                     : No

Forced                      : No



Text #10

ID                          : 12

Format                      : PGS

Muxing mode                 : zlib

Codec ID                    : S_HDMV/PGS

Codec ID/Info               : Picture based subtitle format used on BDs/HD-DVDs

Duration                    : 2 h 2 min

Bit rate                    : 21.3 kb/s

Count of elements           : 1952

Stream size                 : 18.7 MiB (0%)

Title                       : Latin American

Language                    : Spanish

Default                     : No

Forced                      : No



Text #11

ID                          : 13

Format                      : PGS

Muxing mode                 : zlib

Codec ID                    : S_HDMV/PGS

Codec ID/Info               : Picture based subtitle format used on BDs/HD-DVDs

Duration                    : 2 h 2 min

Bit rate                    : 16.0 kb/s

Count of elements           : 1350

Stream size                 : 14.0 MiB (0%)

Language                    : Thai

Default                     : No

Forced                      : No



Menu

00:00:00.000                : :Start

00:10:22.831                : :Paden

00:17:56.200                : :Cobb

00:23:06.969                : :Tyree

00:31:43.068                : :Refusal of Service

00:39:57.395                : :Jake

00:51:07.106                : :Escape

00:56:31.305                : :Mal

01:05:50.155                : :Outlaws' Hideout

01:15:11.340                : :Family Reunions

01:21:49.154                : :Trespassing

01:30:38.350                : :Stella

01:38:50.258                : :The Owner

01:44:53.370                : :Slick

01:50:10.395                : :Rae &amp; Mal

01:59:54.229                : :The Square Dance



Source Information

General

Complete name               : Silverado.1985.1080p.Blu-ray.Remux.AVC.TrueHD.5.1.-.KRaLiMaRKo.mkv

Format                      : Matroska

Format version              : Version 2

File size                   : 27.2 GiB

Duration                    : 2 h 12 min

Overall bit rate mode       : Variable

Overall bit rate            : 29.3 Mb/s

Encoded date                : UTC 2012-01-08 22:28:05

Writing application         : mkvmerge v5.2.1 ('A Far Off Place') built on Jan  2 2012 23:21:10

Writing library             : libebml v1.2.3 + libmatroska v1.3.0



Video

ID                          : 1

Format                      : AVC

Format/Info                 : Advanced Video Codec

Format profile              : [email protected]

Format settings             : CABAC / 2 Ref Frames

Format settings, CABAC      : Yes

Format settings, Reference  : 2 frames

Codec ID                    : V_MPEG4/ISO/AVC

Duration                    : 2 h 12 min

Bit rate mode               : Variable

Width                       : 1 920 pixels

Height                      : 1 080 pixels

Display aspect ratio        : 16:9

Frame rate mode             : Constant

Frame rate                  : 23.976 (24000/1001) FPS

Color space                 : YUV

Chroma subsampling          : 4:2:0

Bit depth                   : 8 bits

Scan type                   : Progressive

Language                    : English

Default                     : Yes

Forced                      : No

Duration_Source             : General_Duration



Audio #1

ID                          : 2

Format                      : MLP FBA

Format/Info                 : Meridian Lossless Packing FBA

Commercial name             : Dolby TrueHD

Codec ID                    : A_TRUEHD

Duration                    : 2 h 12 min

Bit rate mode               : Variable

Maximum bit rate            : 2 871 kb/s

Channel(s)                  : 6 channels

Channel layout              : L R C LFE Ls Rs

Sampling rate               : 48.0 kHz

Frame rate                  : 1 200.000 FPS (40 SPF)

Compression mode            : Lossless

Language                    : English

Default                     : Yes

Forced                      : No

Duration_Source             : General_Duration



Audio #2

ID                          : 3

Format                      : AC-3

Format/Info                 : Audio Coding 3

Commercial name             : Dolby Digital

Codec ID                    : A_AC3

Duration                    : 2 h 12 min

Bit rate mode               : Constant

Bit rate                    : 640 kb/s

Channel(s)                  : 6 channels

Channel layout              : L R C LFE Ls Rs

Sampling rate               : 48.0 kHz

Frame rate                  : 31.250 FPS (1536 SPF)

Compression mode            : Lossy

Stream size                 : 607 MiB (2%)

Title                       : AC3 embedded track

Language                    : English

Service kind                : Complete Main

Default                     : No

Forced                      : No

Duration_Source             : General_Duration



Text #1

ID                          : 4

Format                      : PGS

Codec ID                    : S_HDMV/PGS

Codec ID/Info               : Picture based subtitle format used on BDs/HD-DVDs

Language                    : English

Default                     : Yes

Forced                      : No



Text #2

ID                          : 5

Format                      : PGS

Codec ID                    : S_HDMV/PGS

Codec ID/Info               : Picture based subtitle format used on BDs/HD-DVDs

Title                       : SDH

Language                    : English

Default                     : No

Forced                      : No



Text #3

ID                          : 6

Format                      : PGS

Codec ID                    : S_HDMV/PGS

Codec ID/Info               : Picture based subtitle format used on BDs/HD-DVDs

Title                       : Chinese 1

Language                    : Chinese

Default                     : No

Forced                      : No



Text #4

ID                          : 7

Format                      : PGS

Codec ID                    : S_HDMV/PGS

Codec ID/Info               : Picture based subtitle format used on BDs/HD-DVDs

Title                       : Chinese 2

Language                    : Chinese

Default                     : No

Forced                      : No



Text #5

ID                          : 8

Format                      : PGS

Codec ID                    : S_HDMV/PGS

Codec ID/Info               : Picture based subtitle format used on BDs/HD-DVDs

Language                    : French

Default                     : No

Forced                      : No



Text #6

ID                          : 9

Format                      : PGS

Codec ID                    : S_HDMV/PGS

Codec ID/Info               : Picture based subtitle format used on BDs/HD-DVDs

Language                    : Indonesian

Default                     : No

Forced                      : No



Text #7

ID                          : 10

Format                      : PGS

Codec ID                    : S_HDMV/PGS

Codec ID/Info               : Picture based subtitle format used on BDs/HD-DVDs

Language                    : Japanese

Default                     : No

Forced                      : No



Text #8

ID                          : 11

Format                      : PGS

Codec ID                    : S_HDMV/PGS

Codec ID/Info               : Picture based subtitle format used on BDs/HD-DVDs

Language                    : Korean

Default                     : No

Forced                      : No



Text #9

ID                          : 12

Format                      : PGS

Codec ID                    : S_HDMV/PGS

Codec ID/Info               : Picture based subtitle format used on BDs/HD-DVDs

Title                       : Brazilian

Language                    : Portuguese

Default                     : No

Forced                      : No



Text #10

ID                          : 13

Format                      : PGS

Codec ID                    : S_HDMV/PGS

Codec ID/Info               : Picture based subtitle format used on BDs/HD-DVDs

Title                       : Latin American

Language                    : Spanish

Default                     : No

Forced                      : No



Text #11

ID                          : 14

Format                      : PGS

Codec ID                    : S_HDMV/PGS

Codec ID/Info               : Picture based subtitle format used on BDs/HD-DVDs

Language                    : Thai

Default                     : No

Forced                      : No



Menu

00:00:00.000                : en:Start

00:10:22.831                : en:Paden

00:17:56.200                : en:Cobb

00:23:06.969                : en:Tyree

00:31:43.068                : en:Refusal of Service

00:39:57.395                : en:Jake

00:51:07.106                : en:Escape

00:56:31.305                : en:Mal

01:05:50.155                : en:Outlaws' Hideout

01:15:11.340                : en:Family Reunions

01:21:49.154                : en:Trespassing

01:30:38.350                : en:Stella

01:38:50.258                : en:The Owner

01:44:53.370                : en:Slick

01:50:10.395                : en:Rae &amp; Mal

01:59:54.229                : en:The Square Dance

Discussion

Comments 0

Post Your Comment

Files in this torrent

FILENAMESIZE
Silverado (1985) (1080p BDRip x265 10bit EAC3 5.1 - r0b0t) [TAoE].mkv10.3 GB

Alternative Torrents for 'Silverado bit EAC rbt'.

There are no alternative torrents found.