Reyk 2019 WEB-DLRip ELEKTRI4KA UNIONGANG

Torrent Details


Reyk 2019 WEB-DLRip ELEKTRI4KA UNIONGANG

NAME
Reyk 2019 WEB-DLRip ELEKTRI4KA UNIONGANG.torrent
CATEGORY
Movies
INFOHASH
64595e02030d1e6af783c6b0f8568c821b45c117
SIZE
1.5 GB in 1 file
ADDED
Uploaded on 02-08-2020 by our crawler pet called "Spidey".
SWARM
0 seeders & 0 peers
RATING
No votes yet.

Please login to vote for this torrent.


Description

Информация о фильме

Название: Рэйк

Год выхода: 2019

Жанр: драма, криминал

Режиссер: Владимир Мистюков

В ролях: Александр Савельев, Андрей Чадов, Денис Шведов, Карина Хидэкель, Константин Константинов, Мария Фортунатова, Наталья Аветисян



О фильме: Молодой бухгалтер из провинциального поселения страдает от тирании матери и ищет ответ на причины самоубийства отца. Желание поменять направление жизненного русла толкает его на бегство в Москву, где волей судьбы он попадает в жизнь подпольного казино.







Выпущено: Россия

Продолжительность: 01:41:12

Озвучивание: Оригинальное | iTunes



Файл

Формат: AVI

Качество: WEB-DLRip

Видео: XviD, 1856 Kb/s, 720x304

Аудио: Russian: 48 kHz, AC3 Dolby Digital, 2/0 (L, R) ch, ~192 Kbps

Субтитры: Нет



Релиз группы: &



MediaInfo:Complete name: Reyk.2019.WEB-DLRip.ELEKTRI4KA.UNIONGANG.avi

Format: AVI

Format/Info: Audio Video Interleave

Format profile: OpenDML

File size: 1.46 GiB

Duration: 1 h 41 min

Overall bit rate: 2 059 kb/s

Movie name: .WEB-DL1080p.ELEKTRI4KA.UNIONGANG.

Writing application: Lavf58.20.100



Video

ID: 0

Format: MPEG-4 Visual

Format profile: Advanced [email protected]

Format settings, BVOP: 1

Format settings, QPel: No

Format settings, GMC: No warppoints

Format settings, Matrix: Default (H.263)

Codec ID: XVID

Codec ID/Hint: XviD

Duration: 1 h 41 min

Bit rate: 1 856 kb/s

Width: 720 pixels

Height: 304 pixels

Display aspect ratio: 2.40:1

Frame rate: 24.000 FPS

Color space: YUV

Chroma subsampling: 4:2:0

Bit depth: 8 bits

Scan type: Progressive

Compression mode: Lossy

Bits/(Pixel*Frame): 0.353

Stream size: 1.31 GiB (90%)

Title: .ELEKTRI4KA.UNIONGANG.

Writing library: XviD 67



Audio

ID: 1

Format: AC-3

Format/Info: Audio Coding 3

Mode extension: CM (complete main)

Format settings, Endianness: Big

Codec ID: 2000

Duration: 1 h 41 min

Bit rate mode: Constant

Bit rate: 192 kb/s

Channel(s): 2 channels

Channel positions: Front: L R

Sampling rate: 48.0 kHz

Frame rate: 31.250 FPS (1536 spf)

Bit depth: 16 bits

Compression mode: Lossy

Stream size: 139 MiB (9%)

Alignment: Aligned on interleaves

Interleave, duration: 32 ms (0.77 video frame)

Title: iTunesСкриншоты

Discussion

Comments 0

Post Your Comment

Files in this torrent

FILENAMESIZE
Reyk.2019.WEB-DLRip.ELEKTRI4KA.UNIONGANG.avi1.5 GB

Alternative Torrents for 'Reyk DLRip ELEKTRIKA UNIONGANG'.

TORRENT NAMEADDEDSIZESEEDSPEERSHEALTH
9/11/20201.5 GB90146
9/9/20201.5 GB52112
9/18/20202.1 GB40115
9/11/20201.4 GB37912
9/17/20201.5 GB28814
9/9/20201.5 GB27212
Yesterday1.4 GB242118
9/15/20201.5 GB22418
Today1.4 GB21514
9/7/20201.5 GB20810
9/13/20204.7 GB192124
Yesterday1 GB18760
Yesterday1.5 GB16577
9/18/20201.5 GB156127
9/16/20201.5 GB13911