Разыскивается (2020) WEB-DLRip-AVC [-=DoMiNo=-]

Torrent Details


Разыскивается (2020) WEB-DLRip-AVC <span style=color:#fc9c6d>[-=DoMiNo=-]</span>

NAME
Разыскивается (2020) WEB-DLRip-AVC [-=DoMiNo=-].torrent
CATEGORY
Movies
INFOHASH
9c39e2efb7f113b9c93ff77d100b0d7f353786d2
SIZE
1.8 GB in 0 files
ADDED
Uploaded on 05-08-2020 by our crawler pet called "Spidey".
SWARM
0 seeders & 0 peers
RATING
No votes yet.

Please login to vote for this torrent.


Description

Информация о фильме

Название: Разыскивается

Оригинальное название: Target Number One / Most Wanted

Год выхода: 2020

Жанр: Триллер, криминал, биография

Режиссер: Дэниэл Роби

В ролях: Джош Хартнетт, Стивен МакХэтти, Джим Гэффиган, Дж.С. МакКензи, Антуан-Оливье Пилон, Роз-Мари Перро, Дон МакКеллар, Доменик Ди Роза, Марк Камачо, Ланиса Доун



О фильме:

Фильм основан на реальных событиях. 1989. Канадский журналист по имени Виктор Малерк прикладывает все возможные силы, чтобы распутать очень странное дело молодого бывшего наркомана, которого зовут Даниэль. Парня обвиняют в крупных поставках героина, в связи с чем он был отправлен на столетний срок в тайскую тюрьму. Малерк стал понимать, что в этом деле присутствует крупный заговор и он старательно делает все возможное, чтобы спасти подставленного парня от заключения и страшных пыток...







Страна: Канада

Студия: Caramel Film, Goldrush Entertainment

Продолжительность: 02:04:58

Перевод: Любительский (многоголосый, закадровый)

Субтитры: Английские



Файл

Формат: Matroska

Качество: WEB-DLRip-AVC

Видео: 1046x438 at 23.976 fps, [email protected], ~1756 kbps, 0.160 bpp

Аудио: AC3, 2 ch, ~256 kbps - | Русский | - [@[email protected]]

Формат субтитров: softsub (SRT)



***Релиз от: -=DoMiNo=-



M/Ix264 [info]: frame I:1443 Avg QP:15.96 size: 46303

x264 [info]: frame P:39288 Avg QP:17.47 size: 19222

x264 [info]: frame B:139052 Avg QP:19.37 size: 5924



General

Format : Matroska

Format version : Version 4

File size : 1.76 GiB

Duration : 2 h 5 min

Overall bit rate : 2 003 kb/s

Movie name : Разыскивается.(2020).WEB-DLRip-AVC.[-=DoMiNo=-]

Encoded date : UTC 2020-08-05 11:30:15

Writing application : mkvmerge v49.0.0 ('Sick Of Losing Soulmates') 64-bit

Writing library : libebml v1.4.0 + libmatroska v1.6.1

Cover : Yes

Attachments : Cover.jpg / Cover 2.jpg



Video

ID : 1

Format : AVC

Format/Info : Advanced Video Codec

Format profile : [email protected]

Format settings : CABAC / 10 Ref Frames

Format settings, CABAC : Yes

Format settings, Reference : 10 frames

Codec ID : V_MPEG4/ISO/AVC

Duration : 2 h 4 min

Bit rate : 1 756 kb/s

Width : 1 046 pixels

Height : 438 pixels

Display aspect ratio : 2.40:1

Frame rate mode : Constant

Frame rate : 23.976 (24000/1001) FPS

Color space : YUV

Chroma subsampling : 4:2:0

Bit depth : 8 bits

Scan type : Progressive

Bits/(Pixel*Frame) : 0.160

Stream size : 1.53 GiB (87%)

Title : -=DoMiNo=-

Writing library : x264 core 161 r3018 db0d417

Encoding settings : cabac=1 / ref=10 / deblock=1:-3:-3 / analyse=0x3:0x133 / me=umh / subme=10 / psy=1 / psy_rd=1.00:0.15 / mixed_ref=1 / me_range=32 / chroma_me=1 / trellis=2 / 8x8dct=1 / cqm=0 / deadzone=21,11 / fast_pskip=1 / chroma_qp_offset=-3 / threads=6 / lookahead_threads=1 / sliced_threads=0 / nr=0 / decimate=1 / interlaced=0 / bluray_compat=0 / constrained_intra=0 / bframes=9 / b_pyramid=2 / b_adapt=2 / b_bias=0 / direct=1 / weightb=1 / open_gop=0 / weightp=2 / keyint=250 / keyint_min=23 / scenecut=40 / intra_refresh=0 / rc_lookahead=60 / rc=crf / mbtree=0 / crf=19.0 / qcomp=0.60 / qpmin=0 / qpmax=69 / qpstep=4 / vbv_maxrate=50000 / vbv_bufsize=62500 / crf_max=0.0 / nal_hrd=none / filler=0 / ip_ratio=1.40 / pb_ratio=1.30 / aq=1:1.00

Language : English

Default : Yes

Forced : No

Color range : Limited

Color primaries : BT.709

Transfer characteristics : BT.709

Matrix coefficients : BT.709



Audio

ID : 2

Format : AC-3

Format/Info : Audio Coding 3

Commercial name : Dolby Digital

Codec ID : A_AC3

Duration : 2 h 5 min

Bit rate mode : Constant

Bit rate : 256 kb/s

Channel(s) : 2 channels

Channel layout : L R

Sampling rate : 48.0 kHz

Frame rate : 31.250 FPS (1536 SPF)

Compression mode : Lossy

Stream size : 230 MiB (13%)

Title : MVO_[@[email protected]]

Language : Russian

Service kind : Complete Main

Default : Yes

Forced : No



Text #1

ID : 3

Format : UTF-8

Codec ID : S_TEXT/UTF8

Codec ID/Info : UTF-8 Plain Text

Duration : 1 h 57 min

Bit rate : 60 b/s

Count of elements : 1646

Stream size : 52.2 KiB (0%)

Title : English

Language : English

Default : No

Forced : No



Text #2

ID : 4

Format : UTF-8

Codec ID : S_TEXT/UTF8

Codec ID/Info : UTF-8 Plain Text

Duration : 1 h 53 min

Bit rate : 2 b/s

Count of elements : 90

Stream size : 2.47 KiB (0%)

Title : English - [Forced]

Language : English

Default : No

Forced : No



Menu

00:00:00.000 : :Глава 01

00:07:30.000 : :Глава 02

00:15:00.000 : :Глава 03

00:22:30.000 : :Глава 04

00:30:00.000 : :Глава 05

00:37:30.000 : :Глава 06

00:45:00.000 : :Глава 07

00:52:30.000 : :Глава 08

01:00:00.000 : :Глава 09

01:07:30.000 : :Глава 10

01:15:00.000 : :Глава 11

01:22:30.000 : :Глава 12

01:30:00.000 : :Глава 13

01:37:30.000 : :Глава 14

01:45:00.000 : :Глава 15

01:52:30.000 : :Глава 16

02:00:00.000 : :Глава 17Скриншоты

Discussion

Comments 0

Post Your Comment

Torrent Files (Unavailable)

Please check back later to get a list of all files included in this torrent.

Alternative Torrents for 'Разыскивается DLRipAVC'.

TORRENT NAMEADDEDSIZESEEDSPEERSHEALTH
8/5/20201.8 GB00
5/28/202093 MB00