Pareeksha (2020) Hindi 720p Zee5 WEBRip X264 AAC ESubs - 900MB - MOVCR

Torrent Details

Pareeksha (2020) Hindi 720p Zee5 WEBRip x264 AAC ESubs - 900MB <span style=color:#fc9c6d>- MOVCR</span>
Pareeksha (2020) Hindi 720p Zee5 WEBRip x264 AAC ESubs - 900MB <span style=color:#fc9c6d>- MOVCR</span>

NAME
Pareeksha (2020) Hindi 720p Zee5 WEBRip x264 AAC ESubs - 900MB - MOVCR.torrent
CATEGORY
Movies
INFOHASH
0ec3fec8b34ff18b598ce9c14ae707c063300988
SIZE
910 MB in 2 files
ADDED
Uploaded on 05-08-2020 by our crawler pet called "Spidey".
SWARM
0 seeders & 0 peers
RATING
No votes yet.

Please login to vote for this torrent.


Description

https://MovCr.st












IMDB Link : https://www.imdb.com/title/tt10199974/

Plot :

The film revolves around the story of an ordinary rickshaw driver in Bihar who aspires and dreams of providing a maximum possible quality education to his son by making arrangements for him to study at a private English medium school.




Video
ID : 1
Format : AVC
Format/Info : Advanced Video Codec
Format profile : [email protected]
Format settings : CABAC / 1 Ref Frames
Format settings, CABAC : Yes
Format settings, Reference : 1 frame
Format settings, GOP : M=1, N=25
Codec ID : V_MPEG4/ISO/AVC
Duration : 1 h 42 min
Bit rate mode : Constant
Bit rate : 1 048 kb/s
Width : 1 280 pixels
Height : 544 pixels
Display aspect ratio : 2.35:1
Frame rate mode : Variable
Frame rate : 25.000 FPS
Color space : YUV
Chroma subsampling : 4:2:0
Bit depth : 8 bits
Scan type : Progressive
Bits/(Pixel*Frame) : 0.060
Stream size : 766 MiB (84%)
Title : www.MovCR.st
Language : Hindi
Default : Yes
Forced : No

Audio
ID : 2
Format : AAC LC
Format/Info : Advanced Audio Codec Low Complexity
Codec ID : A_AAC-2
Duration : 1 h 42 min
Bit rate : 192 kb/s
Channel(s) : 2 channels
Channel layout : L R
Sampling rate : 48.0 kHz
Frame rate : 46.875 FPS (1024 SPF)
Compression mode : Lossy
Stream size : 143 MiB (16%)
Title : www.MovCR.st
Language : Hindi
Default : Yes
Forced : No

Text
ID : 3
Format : UTF-8
Codec ID : S_TEXT/UTF8
Codec ID/Info : UTF-8 Plain Text
Duration : 1 h 41 min
Bit rate : 53 b/s
Count of elements : 1366
Stream size : 40.0 KiB (0%)
Title : www.MovCR.st
Language : English
Default : Yes
Forced : No

Discussion

Comments 0

Post Your Comment

Files in this torrent

FILENAMESIZE
Pareeksha (2020) Hindi 720p Zee5 WEBRip x264 AAC ESubs - 900MB - MOVCR.mkv910.4 MB
Torrent_Downloaded_From_www.MovCr.st.txt218 B

Alternative Torrents for 'Pareeksha Hindi Zee AAC ESubs MB'.

TORRENT NAMEADDEDSIZESEEDSPEERSHEALTH
Yesterday3.4 GB912307
Yesterday297 MB819333
Yesterday3.4 GB753236
Yesterday3.7 GB74981
9/24/20203.3 GB73653
9/26/2020528 MB61138
9/18/20203.2 GB59147
9/23/20201.6 GB447105
9/27/2020699 MB403138
Yesterday645 MB351121
9/27/2020313 MB35131
9/26/20201.8 GB30655
9/24/20201.1 GB29876
9/23/2020328 MB2847
9/29/2020349 MB278103