Il Re Di Staten Island-The King Of Staten Island (2020) ITA-ENG Ac3 5.1 WebRip 1080p H264 [ArMor]

Torrent Details


Il re di Staten Island-The king of Staten Island (2020) ITA-ENG Ac3 5.1 WebRip 1080p H264 <span style=color:#fc9c6d>[ArMor]</span>

NAME
Il re di Staten Island-The king of Staten Island (2020) ITA-ENG Ac3 5.1 WebRip 1080p H264 [ArMor].torrent
CATEGORY
Movies
INFOHASH
51891a04b28cec6e7cf18f46628970237eecf515
SIZE
4.6 GB in 4 files
ADDED
Uploaded on 10-08-2020 by our crawler pet called "Spidey".
SWARM
2 seeders & 0 peers
RATING
No votes yet.

Please login to vote for this torrent.


Description





Regista: Judd Apatow

Genere: Commedia, Drammatico

Anno: 2020

Paese: USA

Durata: 136 min

Data di uscita: 30 luglio 2020

Distribuzione: Universal Pictures



Plot: Il Re di Staten Island, film diretto da Judd Apatow, è la storia di Scott (Pete Davidson), un ragazzo che ha perso il padre quando aveva solo 7 anni durante l'attentato dell'11 settembre. La perdita del genitore ha causato al giovane un vero shock e ora che ha più di vent'anni si comporta ancora come un adolescente. Trascorre le sue giornate in giro insieme ai suoi amici, a fumare erba e a fare il cascamorto con la sua amica d'infanzia (Bel Powley); al contrario di sua sorella minore (Maude Apatow), che sta per iniziare il college.



Scott has been a case of arrested development since his firefighter dad died. He spends his days smoking weed and dreaming of being a tattoo artist until events force him to grapple with his grief and take his first steps forward in life.





















General

Unique ID                                : 249777321065222011530259222103973583032 (0xBBE95CB996489B44BFCD48BF352E58B8)

Complete name                            : Il re di Staten Island-The king of Staten Island (2020) ITA-ENG Ac3 5.1 WebRip 1080p H264 [ArMor].mkv

Format                                   : Matroska

Format version                           : Version 4

File size                                : 4.62 GiB

Duration                                 : 2 h 17 min

Overall bit rate                         : 4 817 kb/s

Encoded date                             : UTC 2020-08-10 14:44:15

Writing application                      : mkvmerge v15.0.0 ('Duel with the Devil') 64-bit

Writing library                          : libebml v1.3.5 + libmatroska v1.4.5 / Lavf58.29.100



Video

ID                                       : 1

Format                                   : AVC

Format/Info                              : Advanced Video Codec

Format profile                           : [email protected]

Format settings                          : CABAC / 4 Ref Frames

Format settings, CABAC                   : Yes

Format settings, Reference frames        : 4 frames

Codec ID                                 : V_MPEG4/ISO/AVC

Duration                                 : 2 h 17 min

Bit rate                                 : 4 000 kb/s

Width                                    : 1 920 pixels

Height                                   : 800 pixels

Display aspect ratio                     : 2.40:1

Frame rate mode                          : Constant

Frame rate                               : 23.976 (24000/1001) FPS

Color space                              : YUV

Chroma subsampling                       : 4:2:0

Bit depth                                : 8 bits

Scan type                                : Progressive

Bits/(Pixel*Frame)                       : 0.109

Stream size                              : 3.76 GiB (81%)

Writing library                          : x264 core 157 r2935 545de2f

Encoding settings                        : cabac=1 / ref=2 / deblock=1:0:0 / analyse=0x1:0x111 / me=hex / subme=6 / psy=1 / psy_rd=1.00:0.00 / mixed_ref=1 / me_range=16 / chroma_me=1 / trellis=1 / 8x8dct=0 / cqm=0 / deadzone=21,11 / fast_pskip=1 / chroma_qp_offset=-2 / threads=18 / lookahead_threads=3 / sliced_threads=0 / nr=0 / decimate=1 / interlaced=0 / bluray_compat=0 / constrained_intra=0 / bframes=3 / b_pyramid=2 / b_adapt=1 / b_bias=0 / direct=1 / weightb=1 / open_gop=0 / weightp=1 / keyint=240 / keyint_min=24 / scenecut=40 / intra_refresh=0 / rc_lookahead=30 / rc=abr / mbtree=1 / bitrate=4000 / ratetol=1.0 / qcomp=0.60 / qpmin=0 / qpmax=69 / qpstep=4 / vbv_maxrate=50000 / vbv_bufsize=62500 / nal_hrd=none / filler=0 / ip_ratio=1.40 / aq=1:1.00

Default                                  : Yes

Forced                                   : No

Color range                              : Limited

Color primaries                          : BT.709

Transfer characteristics                 : BT.709

Matrix coefficients                      : BT.709



Audio #1

ID                                       : 2

Format                                   : AC-3

Format/Info                              : Audio Coding 3

Commercial name                          : Dolby Digital

Codec ID                                 : A_AC3

Duration                                 : 2 h 17 min

Bit rate mode                            : Constant

Bit rate                                 : 448 kb/s

Channel(s)                               : 6 channels

Channel layout                           : L R C LFE Ls Rs

Sampling rate                            : 48.0 kHz

Frame rate                               : 31.250 FPS (1536 SPF)

Compression mode                         : Lossy

Stream size                              : 440 MiB (9%)

Title                                    : WEBDL

Language                                 : Italian

Service kind                             : Complete Main

Default                                  : Yes

Forced                                   : No



Audio #2

ID                                       : 3

Format                                   : AC-3

Format/Info                              : Audio Coding 3

Commercial name                          : Dolby Digital

Codec ID                                 : A_AC3

Duration                                 : 2 h 17 min

Bit rate mode                            : Constant

Bit rate                                 : 448 kb/s

Channel(s)                               : 6 channels

Channel layout                           : L R C LFE Ls Rs

Sampling rate                            : 48.0 kHz

Frame rate                               : 31.250 FPS (1536 SPF)

Compression mode                         : Lossy

Stream size                              : 440 MiB (9%)

Title                                    : EAC3

Language                                 : English

Service kind                             : Complete Main

Default                                  : No

Forced                                   : No

Discussion

Comments 0

Post Your Comment

Files in this torrent

FILENAMESIZE
fitysiryws64545765.jpg92.3 KB
Il re di Staten Island-The king of Staten Island (2020) ITA-ENG Ac3 5.1 WebRip 1080p H264 [ArMor].mkv4.6 GB
Il.re.di.Staten.Island.2020.ITA-ENG.RP.WEBDL.1080p_ita.srt181.2 KB
Il.re.di.Staten.Island.2020.ITA-ENG.RP.WEBDL.1080p_ita_forced.srt232 B

Alternative Torrents for 'Il re di Staten Island king of Staten Island ENG'.

TORRENT NAMEADDEDSIZESEEDSPEERSHEALTH
8/10/20204.6 GB20
11/16/20206 GB00