[KORSARS]_Arthur And Merlin Knights Of Camelot WEB-DL 1080p ITunes

Torrent Details


[KORSARS]_Arthur and Merlin Knights of Camelot WEB-DL 1080p iTunes

NAME
[KORSARS]_Arthur and Merlin Knights of Camelot WEB-DL 1080p iTunes.torrent
CATEGORY
Movies
INFOHASH
87cdbda37eb845a78e472b950192a95bfc5e585d
SIZE
3 GB in 1 file
ADDED
Uploaded on 10-08-2020 by our crawler pet called "Spidey".
SWARM
0 seeders & 0 peers
RATING
No votes yet.

Please login to vote for this torrent.


Description

Информация о фильме

Название: Артур и Мерлин: Рыцари Камелота

Оригинальное название: Arthur and Merlin: Knights of Camelot

Год выхода: 2020

Цифровой релиз (в России): 09 августа 2020

Жанр: боевик, приключения, история

Режиссер: Джиллз Алдерсон

В ролях: Ричард Шорт, Джоэль Филлимор, Стелла Стокер, Ричард Брэйк, Оливия Бернстоун, Эмили Хэй, Джо Иган, Дженнифер Мэттер, Ронан Саммерс, Стефан Боэм



О фильме:

Измученный войной Король Артур возвращается в Камелот после десятилетий борьбы с Римской империей. Но в его отсутствие его незаконнорожденный сын Мордред объявил себя королём и стал притязать на королеву Гвиневеру. Артур вместе с верными рыцарями Круглого стола вновь должен сражаться, чтобы вернуть свою корону. Но придет ли на помощь Мерлин? И как далеко может зайти король ради спасения чести своей королевы?





Страна: Великобритания

Продолжительность: 01:27:12

Перевод: Дублированный | iTunes



Файл

Формат: MKV

Кодек: MPEG-4 AVC

Качество: WEB-DL 1080p | iTunes version

Видео: 1920x818, ~ 4 555 kb/s, 8 bits, 25.000 FPS

Аудио #1 (русский): AC-3, 384 kb/s, 6 ch (L R C LFE Ls Rs), 48.0 kHz

Субтитры: отсутствуют

Навигация по главам: есть







Скриншоты







MediaInfo

General

Unique ID : 210246764281198464646384699927353080153 (0x9E2C0DCCA685C3E95889FAFFC957B959)

Complete name : [KORSARS]_Arthur.and.Merlin.Knights.of.Camelot.WEB-DL.1080p.iTunes.mkv

Format : Matroska

Format version : Version 4

File size : 3.01 GiB

Duration : 1 h 27 min

Overall bit rate : 4 941 kb/s

Movie name : [KORSARS]_Arthur.and.Merlin.Knights.of.Camelot.WEB-DL.1080p.iTunes

Encoded date : UTC 2020-08-10 17:42:26

Writing application : mkvmerge v49.0.0 ('Sick Of Losing Soulmates') 64-bit

Writing library : libebml v1.4.0 + libmatroska v1.6.1



Video

ID : 1

Format : AVC

Format/Info : Advanced Video Codec

Format profile : [email protected]

Format settings : CABAC / 5 Ref Frames

Format settings, CABAC : Yes

Format settings, Reference : 5 frames

Codec ID : V_MPEG4/ISO/AVC

Duration : 1 h 27 min

Bit rate : 4 555 kb/s

Width : 1 920 pixels

Height : 818 pixels

Display aspect ratio : 2.35:1

Frame rate mode : Constant

Frame rate : 25.000 FPS

Color space : YUV

Chroma subsampling : 4:2:0

Bit depth : 8 bits

Scan type : Progressive

Bits/(Pixel*Frame) : 0.116

Stream size : 2.77 GiB (92%)

Title : [KORSARS]_Arthur.and.Merlin.Knights.of.Camelot.WEB-DL.1080p.iTunes

Language : English

Default : Yes

Forced : No

Color range : Limited

Color primaries : BT.709

Transfer characteristics : BT.709

Matrix coefficients : BT.709



Audio

ID : 2

Format : AC-3

Format/Info : Audio Coding 3

Commercial name : Dolby Digital

Codec ID : A_AC3

Duration : 1 h 27 min

Bit rate mode : Constant

Bit rate : 384 kb/s

Channel(s) : 6 channels

Channel layout : L R C LFE Ls Rs

Sampling rate : 48.0 kHz

Frame rate : 31.250 FPS (1536 SPF)

Compression mode : Lossy

Delay relative to video : -40 ms

Stream size : 240 MiB (8%)

Title : [KORSARS]_Arthur.and.Merlin.Knights.of.Camelot.WEB-DL.1080p.iTunes

Language : Russian

Service kind : Complete Main

Default : Yes

Forced : No



Menu

00:00:00.000 : ru:Глава 1

00:08:34.320 : ru:Глава 2

00:16:36.400 : ru:Глава 3

00:24:44.479 : ru:Глава 4

00:32:53.719 : ru:Глава 5

00:41:25.238 : ru:Глава 6

00:50:31.437 : ru:Глава 7

00:59:26.757 : ru:Глава 8

01:08:05.476 : ru:Глава 9

01:16:42.755 : ru:Глава 10





Discussion

Comments 0

Post Your Comment

Files in this torrent

FILENAMESIZE
[KORSARS]_Arthur.and.Merlin.Knights.of.Camelot.WEB-DL.1080p.iTunes.mkv3 GB

Alternative Torrents for 'KORSARSArthur and Merlin Knights of Camelot iTunes'.

TORRENT NAMEADDEDSIZESEEDSPEERSHEALTH
9/23/2020884 MB1708468
9/23/20201.8 GB1284468
9/21/20201.3 GB117961
9/19/20201.3 GB92016
Yesterday797 MB893404
9/22/2020797 MB847154
9/18/2020892 MB820150
9/21/2020697 MB76930
9/19/2020700 MB71311
9/18/20201.8 GB66097
9/12/20201.3 GB65914
9/14/20201.3 GB61617
9/12/2020696 MB5636
9/24/2020696 MB498106
9/18/2020796 MB461101