Arthur And Merlin Knights Of Camelot 2020 AMZN WEB-DL 1080p

Torrent Details

Arthur and Merlin Knights of Camelot 2020 AMZN WEB-DL 1080p
Arthur and Merlin Knights of Camelot 2020 AMZN WEB-DL 1080p

NAME
Arthur and Merlin Knights of Camelot 2020 AMZN WEB-DL 1080p.torrent
CATEGORY
Movies
INFOHASH
4cb825c4ba8722bcd7d698c7d3ead4724699167f
SIZE
4.8 GB in 1 file
ADDED
Uploaded on 10-08-2020 by our crawler pet called "Spidey".
SWARM
0 seeders & 0 peers
RATING
No votes yet.

Please login to vote for this torrent.


Description

Информация о фильме

Название: Артур и Мерлин: Рыцари Камелота

Оригинальное название: Arthur and Merlin: Knights of Camelot

Год выхода: 2020

Жанр: Боевик, приключения, история

Режиссер: Джиллз Алдерсон

В ролях: Ричард Брэйк, Ричард Шорт, Джо Иган, Стелла Стокер, Оливия Бернстоун, Ронан Саммерс, Стефан Боэм, Эмили Хэй, Йен Шарп, Дженнифер Мэттер



О фильме:

Измученный войной Король Артур возвращается в Камелот после десятилетий борьбы с Римской империей. Но в его отсутствие его незаконнорожденный сын Мордред объявил себя королём и стал притязать на королеву Гвиневеру. Артур вместе с верными рыцарями Круглого стола вновь должен сражаться, чтобы вернуть свою корону. Но придет ли на помощь Мерлин? И как далеко может зайти король ради спасения чести своей королевы?









Страна: Великобритания

Студия: Dagger Films, Picture Perfect

Продолжительность: 01:30:53

Перевод: Дублированный | iTunes



Файл

Кодек: x.264

Качество: WEB-DL 1080p | AMZN

Видео: MPEG-4 AVC, 6607 Kбит/с, 1920x816, 23.976 кадр/с

Аудио #1: Русский (АС3, 6 ch, 384 Кбит/с, 48.0 KHz) Профессиональный (дублированный) iTunes

Аудио #2: Английский (E-АС3, 6 ch, 640 Кбит/с, 48.0 KHz)

Субтитры: нет

► Без Рекламы!

Трейлер

MediaInfo Источник: Arthur.and.Merlin.Knights.of.Camelot.2020.1080p.AMZN.WEB-DL.DDP5.1.H.264-NTG

General

Unique ID : 188911369781823757083218526788166622424 (0x8E1F01A2C3187F58B755340BF2201CD8)

Complete name : Arthur.and.Merlin.Knights.of.Camelot.2020.AMZN.WEB-DL.1080p.mkv

Format : Matroska

Format version : Version 4

File size : 4.85 GiB

Duration : 1 h 30 min

Overall bit rate mode : Constant

Overall bit rate : 7 633 kb/s

Encoded date : UTC 2020-08-10 20:04:41

Writing application : mkvmerge v7.1.0 ('Good Love') 64bit built on Jul 27 2014 13:06:55

Writing library : libebml v1.3.0 + libmatroska v1.4.1



Video

ID : 1

Format : AVC

Format/Info : Advanced Video Codec

Format profile : [email protected]

Format settings : CABAC / 4 Ref Frames

Format settings, CABAC : Yes

Format settings, Reference fra : 4 frames

Codec ID : V_MPEG4/ISO/AVC

Duration : 1 h 30 min

Bit rate mode : Constant

Bit rate : 6 607 kb/s

Nominal bit rate : 10 000 kb/s

Width : 1 920 pixels

Height : 816 pixels

Display aspect ratio : 2.35:1

Frame rate mode : Constant

Frame rate : 23.976 (24000/1001) FPS

Color space : YUV

Chroma subsampling : 4:2:0

Bit depth : 8 bits

Scan type : Progressive

Bits/(Pixel*Frame) : 0.176

Stream size : 4.19 GiB (87%)

Language : English

Default : Yes

Forced : No

Color range : Limited

Color primaries : BT.709

Transfer characteristics : BT.709

Matrix coefficients : BT.709



Audio #1

ID : 2

Format : AC-3

Format/Info : Audio Coding 3

Commercial name : Dolby Digital

Codec ID : A_AC3

Duration : 1 h 30 min

Bit rate mode : Constant

Bit rate : 384 kb/s

Channel(s) : 6 channels

Channel layout : L R C LFE Ls Rs

Sampling rate : 48.0 kHz

Frame rate : 31.250 FPS (1536 SPF)

Compression mode : Lossy

Stream size : 250 MiB (5%)

Title : DUB | iTunes

Language : Russian

Service kind : Complete Main

Default : Yes

Forced : No



Audio #2

ID : 3

Format : E-AC-3

Format/Info : Enhanced AC-3

Commercial name : Dolby Digital Plus

Codec ID : A_EAC3

Duration : 1 h 30 min

Bit rate mode : Constant

Bit rate : 640 kb/s

Channel(s) : 6 channels

Channel layout : L R C LFE Ls Rs

Sampling rate : 48.0 kHz

Frame rate : 31.250 FPS (1536 SPF)

Compression mode : Lossy

Stream size : 416 MiB (8%)

Language : English

Service kind : Complete Main

Default : No

Forced : No



Menu

00:00:00.000 : en:Chapter 1

00:21:56.024 : en:Chapter 2

00:41:49.133 : en:Chapter 3

01:04:09.848 : en:Chapter 4

01:27:40.675 : en:Chapter 5

Скриншоты







Discussion

Comments 0

Post Your Comment

Files in this torrent

FILENAMESIZE
Arthur.and.Merlin.Knights.of.Camelot.2020.AMZN.WEB-DL.1080p.mkv4.8 GB

Alternative Torrents for 'Arthur and Merlin Knights of Camelot'.

TORRENT NAMEADDEDSIZESEEDSPEERSHEALTH
9/24/20206.6 GB16583
9/24/202016.7 GB66128
9/24/20207.3 GB5946
9/24/2020904 MB3311
Yesterday745 MB308
Yesterday1.4 GB2926
Yesterday2.2 GB2322
Yesterday1.3 GB2128
9/24/20201.8 GB186
Yesterday3.9 GB1717
Yesterday1.3 GB1425
9/24/20201.9 GB114
9/24/20201.7 GB413
9/24/20201.1 GB44
9/24/2020385 MB33