Memento [10th Anniversary Special Edition, Remastered] (2000) BDRip 1080p H 265 [8xRUS_2xUKR_ENG] [HEVC-CLUB]

Torrent Details


Memento [10th Anniversary Special Edition, Remastered] (2000) BDRip 1080p H 265 [8xRUS_2xUKR_ENG] [HEVC-CLUB]

NAME
Memento [10th Anniversary Special Edition, Remastered] (2000) BDRip 1080p H 265 [8xRUS_2xUKR_ENG] [HEVC-CLUB].torrent
CATEGORY
Movies
INFOHASH
4b6aaddf71e1c07d9e70f20b3c7c9dce19f5796d
SIZE
12.5 GB in 1 file
ADDED
Uploaded on 11-08-2020 by our crawler pet called "Spidey".
SWARM
2 seeders & 0 peers
RATING
No votes yet.

Please login to vote for this torrent.


Description

Год выхода: 2000

Страна / Студия: США / Newmarket Capital Group, Team Todd, I Remember Productions

Жанр: триллер, детектив, драма, криминал

Продолжительность: 01:53:26

Перевод: Дублированный, профессиональный (многоголосый, закадровый), профессиональный (двухголосый, закадровый), авторский (одноголосый, закадровый)



Режиссер: Кристофер Нолан

В ролях: Гай Пирс, Кэрри-Энн Мосс, Джо Пантольяно, Марк Бун Джуниор, Расс Фега, Джоржа Фокс, Стивен Тоболовски, Харриет Сэнсом Харрис, Томас Леннон, Каллум Кит Ренни



Описание: Леонард Шелби изысканно и дорого одет, ездит на новеньком «Ягуаре», но проживает в дешевых мотелях. Его цель в жизни — найти убийцу жены. Его проблема — редкая форма амнезии, потеря короткой памяти, помня все до убийства, он не помнит, что было пятнадцать минут назад.



Качество: BDRip 1080p

Видео: HEVC/H.265, 1916x816, ~9421 Kbps

Аудио 1: AC3, 6 ch, 384 Kbps - Русский, дублированный (Мосфильм)

Аудио 2: AC3, 6 ch, 640 Kbps - Русский, AVO (Гаврилов)

Аудио 3: AC3, 6 ch, 640 Kbps - Русский, AVO (С. Кузнецов)

Аудио 4: AC3, 6 ch, 640 Kbps - Русский, AVO (Сербин)

Аудио 5: AC3, 6 ch, 448 Kbps - Русский, AVO (А. Кузнецов)

Аудио 6: AC3, 6 ch, 640 Kbps - Русский, DVO (СОЮЗ Видео)

Аудио 7: AC3, 6 ch, 640 Kbps - Русский, DVO (D2Lab)

Аудио 8: AC3, 6 ch, 448 Kbps - Русский, MVO (LDV)

Аудио 9: AC3, 2 ch, 192 Kbps - Украинский, MVO (Cine+)

Аудио 10: AC3, 2 ch, 192 Kbps - Украинский, DVO (EnterFilm)

Аудио 11: DTS, 6 ch, 1509 Kbps - Английский

Субтитры: Русские (полные х5, SDH), английские (полные, SDH)







Релиз от: -Star-Lord-



Mediainfo Общее

Уникальный идентификатор : 333433668392554163399881609546844658923 (0xFAD8FD17AB440E33E3340CAF8D00DCEB)

Полное имя : R:Memento [10th Anniversary Special Edition, Remastered] (2000) BDRip 1080p H.265 [8xRUS_2xUKR_ENG] [HEVC-CLUB].mkv

Формат : Matroska

Версия формата : Version 4 / Version 2

Размер файла : 12,5 Гбайт

Продолжительность : 1 ч. 53 м.

Общий поток : 15,8 Мбит/сек

Название фильма : Помни / Пам'ятай / Мементо / Memento (2000) [10th Anniversary Special Edition, Remastered]

Дата кодирования : UTC 2020-08-09 14:03:23

Программа кодирования : mkvmerge v20.0.0 ('I Am The Sun') 64-bit

Библиотека кодирования : libebml v1.3.5 + libmatroska v1.4.8

Обложка : Yes

Attachments : cover.jpg



Видео

Идентификатор : 1

Формат : HEVC

Формат/Информация : High Efficiency Video Coding

Профиль формата : Main [email protected]@High

Идентификатор кодека : V_MPEGH/ISO/HEVC

Продолжительность : 1 ч. 53 м.

Битрейт : 9421 Кбит/сек

Ширина : 1916 пикселей

Высота : 816 пикселей

Соотношение сторон : 2,35:1

Режим частоты кадров : Постоянный

Частота кадров : 23,976 (24000/1001) кадра/сек

Цветовое пространство : YUV

Субдискретизация насыщенности : 4:2:0

Битовая глубина : 10 бит

Бит/(Пиксели*Кадры) : 0.251

Размер потока : 7,47 Гбайт (60%)

Заголовок : Помни / Пам'ятай / Мементо / Memento (2000) [10th Anniversary Special Edition, Remastered]

Библиотека кодирования : x265 3.2+5-354901970679:[Windows][clang 8.0.1][64 bit] 10bit

Настройки программы : cpuid=1111039 / frame-threads=13 / numa-pools=12 / wpp / no-pmode / no-pme / no-psnr / no-ssim / log-level=3 / input-csp=1 / input-res=1916x816 / interlace=0 / total-frames=0 / level-idc=51 / high-tier=1 / uhd-bd=0 / ref=5 / allow-non-conformance / no-repeat-headers / annexb / no-aud / no-hrd / info / hash=0 / no-temporal-layers / open-gop / min-keyint=24 / keyint=240 / gop-lookahead=0 / bframes=11 / b-adapt=2 / b-pyramid / bframe-bias=0 / rc-lookahead=60 / lookahead-slices=5 / scenecut=40 / radl=0 / no-splice / no-intra-refresh / ctu=64 / min-cu-size=8 / rect / amp / max-tu-size=32 / tu-inter-depth=4 / tu-intra-depth=4 / limit-tu=0 / rdoq-level=2 / dynamic-rd=0.00 / no-ssim-rd / signhide / no-tskip / nr-intra=0 / nr-inter=0 / no-constrained-intra / no-strong-intra-smoothing / max-merge=3 / limit-refs=1 / no-limit-modes / me=3 / subme=7 / merange=57 / temporal-mvp / no-frame-dup / no-hme / weightp / weightb / no-analyze-src-pics / deblock=-3:-3 / no-sao / no-sao-non-deblock / rd=6 / selective-sao=0 / early-skip / rskip / no-fast-intra / no-tskip-fast / no-cu-lossless / b-intra / no-splitrd-skip / rdpenalty=0 / psy-rd=2.00 / psy-rdoq=1.00 / no-rd-refine / no-lossless / cbqpoffs=0 / crqpoffs=0 / rc=crf / crf=20.0 / qcomp=0.65 / qpstep=4 / stats-write=0 / stats-read=0 / vbv-maxrate=50000 / vbv-bufsize=50000 / vbv-init=0.9 / crf-max=30.0 / crf-min=0.0 / ipratio=1.40 / pbratio=1.30 / aq-mode=1 / aq-strength=1.00 / no-cutree / zone-count=0 / no-strict-cbr / qg-size=32 / no-rc-grain / qpmax=69 / qpmin=0 / no-const-vbv / sar=1 / overscan=0 / videoformat=5 / range=0 / colorprim=2 / transfer=2 / colormatrix=2 / chromaloc=0 / display-window=0 / cll=0,0 / min-luma=0 / max-luma=1023 / log2-max-poc-lsb=8 / vui-timing-info / vui-hrd-info / slices=1 / no-opt-qp-pps / no-opt-ref-list-length-pps / no-multi-pass-opt-rps / scenecut-bias=0.05 / no-opt-cu-delta-qp / no-aq-motion / no-hdr / no-hdr-opt / no-dhdr10-opt / no-idr-recovery-sei / analysis-reuse-level=5 / scale-factor=0 / refine-intra=0 / refine-inter=0 / refine-mv=1 / refine-ctu-distortion=0 / no-limit-sao / ctu-info=0 / no-lowpass-dct / refine-analysis-type=0 / copy-pic=1 / max-ausize-factor=1.0 / no-dynamic-refine / no-single-sei / no-hevc-aq / no-svt / no-field / qp-adaptation-range=1.00

Язык : English

Default : Да

Forced : Нет

Цветовой диапазон : Limited



Аудио #1

Идентификатор : 2

Формат : AC-3

Формат/Информация : Audio Coding 3

Идентификатор кодека : A_AC3

Продолжительность : 1 ч. 53 м.

Вид битрейта : Постоянный

Битрейт : 384 Кбит/сек

Каналы : 6 каналов

Расположение каналов : Front: L C R, Side: L R, LFE

Частота : 48,0 КГц

Частота кадров : 31,250 кадров/сек (1536 SPF)

Битовая глубина : 16 бит

Метод сжатия : С потерями

Размер потока : 312 Мбайт (2%)

Заголовок : AC3 / 5.1 Ch / 384 kbps / DUB / Мосфильм

Язык : Russian

ServiceKind/Strin : Complete Main

Default : Да

Forced : Да



Аудио #2

Идентификатор : 3

Формат : AC-3

Формат/Информация : Audio Coding 3

Идентификатор кодека : A_AC3

Продолжительность : 1 ч. 53 м.

Вид битрейта : Постоянный

Битрейт : 640 Кбит/сек

Каналы : 6 каналов

Расположение каналов : Front: L C R, Side: L R, LFE

Частота : 48,0 КГц

Частота кадров : 31,250 кадров/сек (1536 SPF)

Битовая глубина : 16 бит

Метод сжатия : С потерями

Размер потока : 519 Мбайт (4%)

Заголовок : AC3 / 5.1 Ch / 640 kbps / AVO / А.Гаврилов

Язык : Russian

ServiceKind/Strin : Complete Main

Default : Нет

Forced : Нет



Аудио #3

Идентификатор : 4

Формат : AC-3

Формат/Информация : Audio Coding 3

Идентификатор кодека : A_AC3

Продолжительность : 1 ч. 53 м.

Вид битрейта : Постоянный

Битрейт : 640 Кбит/сек

Каналы : 6 каналов

Расположение каналов : Front: L C R, Side: L R, LFE

Частота : 48,0 КГц

Частота кадров : 31,250 кадров/сек (1536 SPF)

Битовая глубина : 16 бит

Метод сжатия : С потерями

Размер потока : 519 Мбайт (4%)

Заголовок : AC3 / 5.1 Ch / 640 kbps / AVO / С.Кузнецов

Язык : Russian

ServiceKind/Strin : Complete Main

Default : Нет

Forced : Нет



Аудио #4

Идентификатор : 5

Формат : AC-3

Формат/Информация : Audio Coding 3

Идентификатор кодека : A_AC3

Продолжительность : 1 ч. 53 м.

Вид битрейта : Постоянный

Битрейт : 640 Кбит/сек

Каналы : 6 каналов

Расположение каналов : Front: L C R, Side: L R, LFE

Частота : 48,0 КГц

Частота кадров : 31,250 кадров/сек (1536 SPF)

Битовая глубина : 16 бит

Метод сжатия : С потерями

Размер потока : 519 Мбайт (4%)

Заголовок : AC3 / 5.1 Ch / 640 kbps / AVO / Ю.Сербин

Язык : Russian

ServiceKind/Strin : Complete Main

Default : Нет

Forced : Нет



Аудио #5

Идентификатор : 6

Формат : AC-3

Формат/Информация : Audio Coding 3

Идентификатор кодека : A_AC3

Продолжительность : 1 ч. 53 м.

Вид битрейта : Постоянный

Битрейт : 448 Кбит/сек

Каналы : 6 каналов

Расположение каналов : Front: L C R, Side: L R, LFE

Частота : 48,0 КГц

Частота кадров : 31,250 кадров/сек (1536 SPF)

Битовая глубина : 16 бит

Метод сжатия : С потерями

Размер потока : 363 Мбайт (3%)

Заголовок : AC3 / 5.1 Ch / 448 kbps / AVO / А.Кузнецов

Язык : Russian

ServiceKind/Strin : Complete Main

Default : Нет

Forced : Нет



Аудио #6

Идентификатор : 7

Формат : AC-3

Формат/Информация : Audio Coding 3

Идентификатор кодека : A_AC3

Продолжительность : 1 ч. 53 м.

Вид битрейта : Постоянный

Битрейт : 640 Кбит/сек

Каналы : 6 каналов

Расположение каналов : Front: L C R, Side: L R, LFE

Частота : 48,0 КГц

Частота кадров : 31,250 кадров/сек (1536 SPF)

Битовая глубина : 16 бит

Метод сжатия : С потерями

Размер потока : 519 Мбайт (4%)

Заголовок : AC3 / 5.1 Ch / 640 kbps / DVO / СОЮЗ Видео

Язык : Russian

ServiceKind/Strin : Complete Main

Default : Нет

Forced : Нет



Аудио #7

Идентификатор : 8

Формат : AC-3

Формат/Информация : Audio Coding 3

Идентификатор кодека : A_AC3

Продолжительность : 1 ч. 53 м.

Вид битрейта : Постоянный

Битрейт : 640 Кбит/сек

Каналы : 6 каналов

Расположение каналов : Front: L C R, Side: L R, LFE

Частота : 48,0 КГц

Частота кадров : 31,250 кадров/сек (1536 SPF)

Битовая глубина : 16 бит

Метод сжатия : С потерями

Размер потока : 519 Мбайт (4%)

Заголовок : AC3 / 5.1 Ch / 640 kbps / DVO / D2Lab

Язык : Russian

ServiceKind/Strin : Complete Main

Default : Нет

Forced : Нет



Аудио #8

Идентификатор : 9

Формат : AC-3

Формат/Информация : Audio Coding 3

Идентификатор кодека : A_AC3

Продолжительность : 1 ч. 53 м.

Вид битрейта : Постоянный

Битрейт : 448 Кбит/сек

Каналы : 6 каналов

Расположение каналов : Front: L C R, Side: L R, LFE

Частота : 48,0 КГц

Частота кадров : 31,250 кадров/сек (1536 SPF)

Битовая глубина : 16 бит

Метод сжатия : С потерями

Размер потока : 364 Мбайт (3%)

Заголовок : AC3 / 5.1 Ch / 448 kbps / MVO / LDV

Язык : Russian

ServiceKind/Strin : Complete Main

Default : Нет

Forced : Нет



Аудио #9

Идентификатор : 10

Формат : AC-3

Формат/Информация : Audio Coding 3

Идентификатор кодека : A_AC3

Продолжительность : 1 ч. 53 м.

Вид битрейта : Постоянный

Битрейт : 192 Кбит/сек

Каналы : 2 канала

Расположение каналов : Front: L R

Частота : 48,0 КГц

Частота кадров : 31,250 кадров/сек (1536 SPF)

Битовая глубина : 16 бит

Метод сжатия : С потерями

Размер потока : 156 Мбайт (1%)

Заголовок : AC3 / 2.0 Ch / 192 kbps / MVO / Cine+

Язык : Ukrainian

ServiceKind/Strin : Complete Main

Default : Нет

Forced : Нет



Аудио #10

Идентификатор : 11

Формат : AC-3

Формат/Информация : Audio Coding 3

Идентификатор кодека : A_AC3

Продолжительность : 1 ч. 53 м.

Вид битрейта : Постоянный

Битрейт : 192 Кбит/сек

Каналы : 2 канала

Расположение каналов : Front: L R

Частота : 48,0 КГц

Частота кадров : 31,250 кадров/сек (1536 SPF)

Битовая глубина : 16 бит

Метод сжатия : С потерями

Размер потока : 156 Мбайт (1%)

Заголовок : AC3 / 2.0 Ch / 192 kbps / DVO / EnterFilm

Язык : Ukrainian

ServiceKind/Strin : Complete Main

Default : Нет

Forced : Нет



Аудио #11

Идентификатор : 12

Формат : DTS

Формат/Информация : Digital Theater Systems

Идентификатор кодека : A_DTS

Продолжительность : 1 ч. 53 м.

Вид битрейта : Постоянный

Битрейт : 1509 Кбит/сек

Каналы : 6 каналов

Расположение каналов : Front: L C R, Side: L R, LFE

Частота : 48,0 КГц

Частота кадров : 93,750 кадра/сек (512 SPF)

Битовая глубина : 24 бит

Метод сжатия : С потерями

Размер потока : 1,20 Гбайт (10%)

Заголовок : DTS / 5.1 Ch / 1509 kbps / Original

Язык : English

Default : Нет

Forced : Нет



Текст #1

Идентификатор : 13

Формат : UTF-8

Идентификатор кодека : S_TEXT/UTF8

Идентификатор кодека/Информация : UTF-8 Plain Text

Продолжительность : 1 ч. 50 м.

Битрейт : 102 бит/сек

ElementCount : 1212

Размер потока : 82,8 Кбайт (0%)

Заголовок : R5 West Video

Язык : Russian

Default : Нет

Forced : Нет



Текст #2

Идентификатор : 14

Формат : UTF-8

Идентификатор кодека : S_TEXT/UTF8

Идентификатор кодека/Информация : UTF-8 Plain Text

Продолжительность : 1 ч. 50 м.

Битрейт : 82 бит/сек

ElementCount : 1155

Размер потока : 66,9 Кбайт (0%)

Заголовок : R5 SOYUZ Video

Язык : Russian

Default : Нет

Forced : Нет



Текст #3

Идентификатор : 15

Формат : UTF-8

Идентификатор кодека : S_TEXT/UTF8

Идентификатор кодека/Информация : UTF-8 Plain Text

Продолжительность : 1 ч. 50 м.

Битрейт : 87 бит/сек

ElementCount : 1322

Размер потока : 70,9 Кбайт (0%)

Заголовок : D2Lab

Язык : Russian

Default : Нет

Forced : Нет



Текст #4

Идентификатор : 16

Формат : UTF-8

Идентификатор кодека : S_TEXT/UTF8

Идентификатор кодека/Информация : UTF-8 Plain Text

Продолжительность : 1 ч. 47 м.

Битрейт : 111 бит/сек

ElementCount : 1207

Размер потока : 88,0 Кбайт (0%)

Заголовок : LDV

Язык : Russian

Default : Нет

Forced : Нет



Текст #5

Идентификатор : 17

Формат : UTF-8

Идентификатор кодека : S_TEXT/UTF8

Идентификатор кодека/Информация : UTF-8 Plain Text

Продолжительность : 1 ч. 50 м.

Битрейт : 106 бит/сек

ElementCount : 1261

Размер потока : 85,5 Кбайт (0%)

Заголовок : ssgen & KillerBeer

Язык : Russian

Default : Нет

Forced : Нет



Текст #6

Идентификатор : 18

Формат : UTF-8

Идентификатор кодека : S_TEXT/UTF8

Идентификатор кодека/Информация : UTF-8 Plain Text

Продолжительность : 1 ч. 50 м.

Битрейт : 126 бит/сек

ElementCount : 1240

Размер потока : 102 Кбайт (0%)

Заголовок : SDH

Язык : Russian

Default : Нет

Forced : Нет



Текст #7

Идентификатор : 19

Формат : UTF-8

Идентификатор кодека : S_TEXT/UTF8

Идентификатор кодека/Информация : UTF-8 Plain Text

Продолжительность : 1 ч. 47 м.

Битрейт : 65 бит/сек

ElementCount : 1228

Размер потока : 51,8 Кбайт (0%)

Заголовок : Full

Язык : English

Default : Нет

Forced : Нет



Текст #8

Идентификатор : 20

Формат : UTF-8

Идентификатор кодека : S_TEXT/UTF8

Идентификатор кодека/Информация : UTF-8 Plain Text

Продолжительность : 1 ч. 50 м.

Битрейт : 72 бит/сек

ElementCount : 1313

Размер потока : 58,8 Кбайт (0%)

Заголовок : SDH

Язык : English

Default : Нет

Forced : Нет



Меню

00:00:00.000 : en:Taking a Picture

00:06:25.802 : en:Waiting for a Phone Call

00:11:06.457 : en:Loading a Gun

00:16:13.097 : en:Washing His Hands

00:22:17.836 : en:Talking on the Phone

00:28:30.583 : en:Metting a New Friend

00:39:26.822 : en:Taking a Test

00:48:56.767 : en:Chasing Someone

01:02:41.674 : en:Lighting a Fire

01:09:57.318 : en:Asking for Advice

01:17:18.133 : en:Writing a Letter

01:21:44.274 : en:Trying to Hear Someone

01:26:33.354 : en:Taking Medicine

01:33:58.966 : en:Calling the Police

01:40:48.667 : en:Looking at Pictures

01:49:18.552 : en:Getting Married

Discussion

Comments 0

Post Your Comment

Files in this torrent

FILENAMESIZE
Memento [10th Anniversary Special Edition, Remastered] (2000) BDRip 1080p H.265 [8xRUS_2xUKR_ENG] [HEVC-CLUB].mkv12.5 GB

Alternative Torrents for 'Memento Anniversary Special Edition Remastered xRUSxUKRENG HEVCCLUB'.

There are no alternative torrents found.