The Hater 2020 AVO 1080p BluRay X264

Torrent Details

The Hater 2020 AVO 1080p BluRay x264

NAME
The Hater 2020 AVO 1080p BluRay x264.torrent
CATEGORY
Movies
INFOHASH
51dbf3817470ebdde775b383bed45bdcb9245cad
SIZE
11.4 GB in 1 file
ADDED
Uploaded on 11-08-2020 by our crawler pet called "Spidey".
SWARM
0 seeders & 0 peers
RATING
No votes yet.

Please login to vote for this torrent.


Description

Информация о фильме

Название: Зал самоубийц: Хейтер / Хейтер

Оригинальное название: Sala samobójców. Hejterr / The Hater

Год выхода: 2020

Жанр: Триллер, драма

Режиссер: Ян Комаса

В ролях: Мацей Мусаловский, Ванесса Александр, Данута Стенка, Яцек Коман, Агата Кулеша, Мачей Штур, Адам Градовский, Петр Бедрон, Анджей Велецки, Ян Гринкевич



О фильме:

Томек, студент юридического факультета Варшавского университета, пойман на плагиате и исключен. Однако он решает скрыть этот факт от мира и продолжает получать финансовую помощь от семьи Красуцких - родителей Габи, подруги детства.

Когда обман раскрывается, скомпрометированный парень теряет веру и доброту своих благодетелей. Переполненный гневом и сожалением, отвергнутый Габи, в которую он тайно влюблен в течение многих лет, Томек планирует отомстить Красуцким.

Шанс появляется, когда он получает работу в рекламном агентстве, а вместе с ней доступ к новейшим технологиям и секретам столичной элиты. Под видом профессиональных обязанностей Томек начинает слежку за Красуцкими, активно включенными в политическую кампанию кандидата в мэры столицы – Павла Рудницкого. Вскоре план онлайн ненавистника начинает принимать все более реальные формы, и путь к его реализации проходит через виртуальный мир популярной компьютерной игры.







Страна: Польша

Студия: Canal+ Polska, Coloroffon, dFlights, Naima Film, TVN

Продолжительность: 02:15:11

Перевод:

• Авторский (одноголосый, закадровый) | Матвеев



*** Присутствует ненормативная лексика!



Файл

Качество: BDRip 1080p

Формат: MKV

Кодек: MPEG-4 AVC

Видео: 1920x804 (2,40:1), 23,976 fps, MPEG-4 AVC ~ 10,1 Мbps avg, 0.274 bit/pixel

Аудио: AC3, 48 kHz, 6 ch, ~448.00 kbps avg | русский | Матвеев

Аудио: DTS, 48 kHz, 6 ch, ~1509.00 kbps avg | польский | Оригинал

Субтитры: Русские (Forced)





Инфо-файлОбщее

Уникальный идентификатор : 219662832762636762777300449189858103897 (0xA54185D18B732761279FBAB4854FD259)

Полное имя : The.Hater.2020.AVO.1080p.BluRay.x264.mkv

Формат : Matroska

Версия формата : Version 4

Размер файла : 11,4 Гбайт

Продолжительность : 2 ч. 15 м.

Общий поток : 12,1 Мбит/сек

Название фильма : Зал самоубийц. Хейтер / Sala samobójców. Hejter (2020)

Дата кодирования : UTC 2020-08-11 18:50:18

Программа кодирования : mkvmerge v47.0.0 ('Black Flag') 64-bit

Библиотека кодирования : libebml v1.3.10 + libmatroska v1.5.2

Обложка : Yes

Attachments : cover.jpg



Видео

Идентификатор : 1

Формат : AVC

Формат/Информация : Advanced Video Codec

Профиль формата : [email protected]

Настройки формата : CABAC / 5 Ref Frames

Параметр CABAC формата : Да

Параметр RefFrames формата : 5 кадров

Идентификатор кодека : V_MPEG4/ISO/AVC

Продолжительность : 2 ч. 15 м.

Битрейт : 10,1 Мбит/сек

Ширина : 1 920 пикселей

Высота : 804 пикселя

Соотношение сторон : 2,40:1

Режим частоты кадров : Постоянный

Частота кадров : 24,000 кадра/сек

Цветовое пространство : YUV

Субдискретизация насыщенности : 4:2:0

Битовая глубина : 8 бит

Тип развёртки : Прогрессивная

Бит/(Пиксели*Кадры) : 0.274

Размер потока : 9,58 Гбайт (84%)

Заголовок : # WiKi

Библиотека кодирования : x264 core 129 r2245+704+36 8e61944 tMod+MixAQ [[email protected]:2:0 X86_64]

Настройки программы : cabac=1 / ref=5 / deblock=1:-3:-3 / analyse=0x3:0x133 / me=umh / subme=11 / psy=1 / fade_compensate=0.00 / psy_rd=1.00:0.10 / mixed_ref=1 / me_range=64 / chroma_me=1 / trellis=2 / 8x8dct=1 / cqm=0 / deadzone=21,11 / fast_pskip=0 / chroma_qp_offset=-3 / threads=18 / lookahead_threads=3 / sliced_threads=0 / nr=0 / decimate=0 / interlaced=0 / bluray_compat=0 / constrained_intra=0 / fgo=0 / bframes=10 / b_pyramid=2 / b_adapt=2 / b_bias=0 / direct=3 / weightb=1 / open_gop=0 / weightp=2 / keyint=250 / keyint_min=24 / scenecut=40 / intra_refresh=0 / rc=2pass / mbtree=0 / bitrate=10146 / ratetol=1.0 / qcomp=0.70 / qpmin=0 / qpmax=69 / qpstep=4 / cplxblur=20.0 / qblur=0.5 / ip_ratio=1.40 / pb_ratio=1.30 / aq=1 / aq-strength=0.90 / aq-sensitivity=10.00 / aq-ifactor=1.00 / aq-pfactor=1.00 / aq-bfactor=1.00 / aq2=0

Язык : Polish

Default : Да

Forced : Нет



Аудио #1

Идентификатор : 2

Формат : AC-3

Формат/Информация : Audio Coding 3

Коммерческое название : Dolby Digital

Идентификатор кодека : A_AC3

Продолжительность : 2 ч. 15 м.

Вид битрейта : Постоянный

Битрейт : 448 Кбит/сек

Каналы : 6 каналов

Channel layout : L R C LFE Ls Rs

Частота : 48,0 КГц

Частота кадров : 31,250 кадров/сек (1536 SPF)

Метод сжатия : С потерями

Размер потока : 433 Мбайт (4%)

Заголовок : AVO | Матвеев

Язык : Russian

Service kind : Complete Main

Default : Да

Forced : Да



Аудио #2

Идентификатор : 3

Формат : DTS

Формат/Информация : Digital Theater Systems

Идентификатор кодека : A_DTS

Продолжительность : 2 ч. 15 м.

Вид битрейта : Постоянный

Битрейт : 1 509 Кбит/сек

Каналы : 6 каналов

Channel layout : C L R Ls Rs LFE

Частота : 48,0 КГц

Частота кадров : 93,750 кадра/сек (512 SPF)

Битовая глубина : 24 бит

Метод сжатия : С потерями

Размер потока : 1,42 Гбайт (12%)

Язык : Polish

Default : Нет

Forced : Нет



Текст

Идентификатор : 4

Формат : UTF-8

Идентификатор кодека : S_TEXT/UTF8

Идентификатор кодека/Информация : UTF-8 Plain Text

Продолжительность : 1 ч. 39 м.

Битрейт : 6 бит/сек

Count of elements : 106

Размер потока : 4,74 Кбайт (0%)

Заголовок : Forced

Язык : Russian

Default : Да

Forced : Да



Меню

00:00:00.000 : en:Chapter 01

00:09:41.625 : en:Chapter 02

00:19:24.042 : en:Chapter 03

00:29:15.292 : en:Chapter 04

00:39:33.292 : en:Chapter 05

00:50:01.375 : en:Chapter 06

00:59:25.917 : en:Chapter 07

01:10:33.042 : en:Chapter 08

01:19:41.708 : en:Chapter 09

01:35:35.542 : en:Chapter 10

01:46:19.042 : en:Chapter 11

02:02:42.708 : en:Chapter 12



Скриншоты

Discussion

Comments 0

Post Your Comment

Files in this torrent

FILENAMESIZE
The.Hater.2020.AVO.1080p.BluRay.x264.mkv11.4 GB

Alternative Torrents for 'Hater AVO BluRay'.

TORRENT NAMEADDEDSIZESEEDSPEERSHEALTH
8/11/202011.4 GB00