Gunjan Saxena - The Kargil Girl (2020) 720p UNTOUCHED NF WEB-DL [Hindi + English] X264 AAC 5.1 ESubs - MOVCR

Torrent Details

Gunjan Saxena - The Kargil Girl (2020) 720p UNTOUCHED NF WEB-DL [Hindi + English] x264 AAC 5.1 ESubs <span style=color:#fc9c6d>- MOVCR</span>
Gunjan Saxena - The Kargil Girl (2020) 720p UNTOUCHED NF WEB-DL [Hindi + English] x264 AAC 5.1 ESubs <span style=color:#fc9c6d>- MOVCR</span>

NAME
Gunjan Saxena - The Kargil Girl (2020) 720p UNTOUCHED NF WEB-DL [Hindi + English] x264 AAC 5.1 ESubs - MOVCR.torrent
CATEGORY
Movies
INFOHASH
63a9fbdc432ea2762949ba3170936923785143ec
SIZE
916 MB in 2 files
ADDED
Uploaded on 12-08-2020 by our crawler pet called "Spidey".
SWARM
0 seeders & 0 peers
RATING
No votes yet.

Please login to vote for this torrent.


Description

https://MovCr.st



















Gunjan Saxena - The Kargil Girl (2020) 720p UNTOUCHED NF WEB-DL [Hindi + English] x264 AAC 5.1 ESubs - MOVCR



















IMDB Link : https://www.imdb.com/title/tt10350626/



Plot :



Flight Lieutenant Gunjan Saxena makes history in her journey from aspiring aviator to India’s first female combat pilot in the Kargil War.







Video

ID                          : 1

Format                      : AVC

Format/Info                 : Advanced Video Codec

Format profile              : [email protected]

Format settings             : CABAC / 3 Ref Frames

Format settings, CABAC      : Yes

Format settings, Reference  : 3 frames

Codec ID                    : V_MPEG4/ISO/AVC

Duration                    : 1 h 52 min

Bit rate                    : 751 kb/s

Width                       : 1 280 pixels

Height                      : 720 pixels

Display aspect ratio        : 16:9

Frame rate mode             : Constant

Frame rate                  : 24.000 FPS

Color space                 : YUV

Chroma subsampling          : 4:2:0

Bit depth                   : 8 bits

Scan type                   : Progressive

Bits/(Pixel*Frame)          : 0.034

Stream size                 : 605 MiB (66%)

Title                       : www.MovCr.st

Default                     : Yes

Forced                      : No



Audio #1

ID                          : 2

Format                      : AAC LC SBR

Format/Info                 : Advanced Audio Codec Low Complexity with Spectral Band Replication

Commercial name             : HE-AAC

Format settings             : Explicit

Codec ID                    : A_AAC-2

Duration                    : 1 h 52 min

Bit rate                    : 192 kb/s

Channel(s)                  : 6 channels

Channel layout              : C L R Ls Rs LFE

Sampling rate               : 48.0 kHz

Frame rate                  : 23.438 FPS (2048 SPF)

Compression mode            : Lossy

Stream size                 : 155 MiB (17%)

Language                    : Hindi

Default                     : Yes

Forced                      : No



Audio #2

ID                          : 3

Format                      : AAC LC SBR

Format/Info                 : Advanced Audio Codec Low Complexity with Spectral Band Replication

Commercial name             : HE-AAC

Format settings             : Explicit

Codec ID                    : A_AAC-2

Duration                    : 1 h 52 min

Bit rate                    : 192 kb/s

Channel(s)                  : 6 channels

Channel layout              : C L R Ls Rs LFE

Sampling rate               : 48.0 kHz

Frame rate                  : 23.438 FPS (2048 SPF)

Compression mode            : Lossy

Stream size                 : 155 MiB (17%)

Language                    : English

Default                     : No

Forced                      : No



Text

ID                          : 4

Format                      : UTF-8

Codec ID                    : S_TEXT/UTF8

Codec ID/Info               : UTF-8 Plain Text

Duration                    : 1 h 49 min

Bit rate                    : 50 b/s

Count of elements           : 1388

Stream size                 : 41.0 KiB (0%)

Language                    : English

Default                     : Yes

Forced                      : No



























Discussion

Comments 0

Post Your Comment

Files in this torrent

FILENAMESIZE
Gunjan Saxena - The Kargil Girl (2020) 720p UNTOUCHED NF WEB-DL [Hindi + English] x264 AAC 5.1 ESubs - MOVCR.mkv915.7 MB
Torrent_Downloaded_From_www.MovCr.st.txt218 B

Alternative Torrents for 'Gunjan Saxena Kargil Girl UNTOUCHED NF Hindi English AAC ESubs'.

TORRENT NAMEADDEDSIZESEEDSPEERSHEALTH
8/12/2020916 MB00