Palm Springs 2020 WEB-DLRip AVC ExKinoRay

Torrent Details

Palm Springs 2020 WEB-DLRip AVC<span style=color:#fc9c6d> ExKinoRay</span>
Palm Springs 2020 WEB-DLRip AVC<span style=color:#fc9c6d> ExKinoRay</span>

NAME
Palm Springs 2020 WEB-DLRip AVC ExKinoRay.torrent
CATEGORY
Movies
INFOHASH
6bc52aad3d61baef1485065dddd47bd0c18c9ac1
SIZE
1.8 GB in 1 file
ADDED
Uploaded on 13-08-2020 by our crawler pet called "Spidey".
SWARM
0 seeders & 0 peers
RATING
No votes yet.

Please login to vote for this torrent.


Description

Название: Зависнуть в Палм-Спрингс

Оригинальное название: Palm Springs

Год выпуска: 2020

Жанр: Комедия, фантастика

Режиссер: Макс Барбаков

В ролях: Энди Сэмберг, Кристин Милиоти, Дж.К. Симмонс, Тайлер Хэклин, Питер Галлахер, Дейл Дикки, Камила Мендес, Жаклин Обрадорс, Мередит Хагнер, Крис Пэнг





О фильме: На одной летней свадьбе знакомятся сестра невесты Сара и парень подружки невесты Найлз. Интересно, что Найлз на этой свадьбе бывал миллион раз, так как застрял в петле времени. Как вскоре выяснится, в этом праздничном дне сурка торчит довольно много народу, и некоторым тут даже нравится.







Страна: США

Студия: Limelight, Sun Entertainment Culture, The Lonely Island

Продолжительность: 01:29:59

Перевод: Дублированный | iTunes

Профессиональный (многоголосый, закадровый) [NewStudio] [ненормативная лексика]

Профессиональный (многоголосый, закадровый) [HDrezka Studio] [ненормативная лексика]



Формат: MKV

Качество: WEB-DLRip-AVC

Видео: MPEG-4 AVC, 1024x428 (2.40:1), 1609 kbps, 24.000 fps

Аудио 1: 48 kHz, AC3, 5.1, 384 Kbps | iTunes | RUS |

Аудио 2: 48 kHz, AC3, 5.1, 384 Kbps | NewStudio | RUS |

Аудио 3: 48 kHz, AC3, 5.1, 448 Kbps | HDrezka Studio | RUS |

Субтитры: Русские (Forced), английские







ОтчетМедиаИнфоGeneral

Unique ID : 226490797328983321765201459006409551867 (0xAA648A767B941186BC4D27E9354C2FFB)

Complete name : D:Palm.Springs.2020.WEB-DLRip.AVC.ExKinoRay.mkv

Format : Matroska

Format version : Version 2

File size : 1.81 GiB

Duration : 1 h 29 min

Overall bit rate : 2 882 kb/s

Movie name : Palm Springs 2020 from ExKinoRay

Encoded date : UTC 2020-08-12 23:11:02

Writing application : mkvmerge v5.6.0 ('Kenya Kane') built on May 27 2012 16:44:04

Writing library : libebml v1.2.3 + libmatroska v1.3.0

Attachments : front.jpg



Video

ID : 1

Format : AVC

Format/Info : Advanced Video Codec

Format profile : [email protected]

Format settings, CABAC : Yes

Format settings, ReFrames : 11 frames

Codec ID : V_MPEG4/ISO/AVC

Duration : 1 h 29 min

Bit rate : 1 609 kb/s

Width : 1 024 pixels

Height : 428 pixels

Display aspect ratio : 2.40:1

Frame rate mode : Constant

Frame rate : 24.000 FPS

Color space : YUV

Chroma subsampling : 4:2:0

Bit depth : 8 bits

Scan type : Progressive

Bits/(Pixel*Frame) : 0.153

Stream size : 1.01 GiB (56%)

Title : Enigma

Writing library : x264 core 152 r2851 ba24899

Encoding settings : cabac=1 / ref=11 / deblock=1:-2:-2 / analyse=0x3:0x113 / me=umh / subme=10 / psy=1 / psy_rd=1.00:0.05 / mixed_ref=1 / me_range=32 / chroma_me=1 / trellis=2 / 8x8dct=1 / cqm=0 / deadzone=21,11 / fast_pskip=1 / chroma_qp_offset=-3 / threads=12 / lookahead_threads=2 / sliced_threads=0 / nr=0 / decimate=1 / interlaced=0 / bluray_compat=0 / constrained_intra=0 / bframes=9 / b_pyramid=2 / b_adapt=2 / b_bias=0 / direct=1 / weightb=1 / open_gop=0 / weightp=2 / keyint=240 / keyint_min=24 / scenecut=40 / intra_refresh=0 / rc=crf / mbtree=0 / crf=18.0 / qcomp=0.60 / qpmin=0 / qpmax=51 / qpstep=4 / ip_ratio=1.40 / pb_ratio=1.30 / aq=1:1.00

Language : English

Default : Yes

Forced : No



Audio #1

ID : 2

Format : AC-3

Format/Info : Audio Coding 3

Mode extension : CM (complete main)

Format settings, Endianness : Big

Codec ID : A_AC3

Duration : 1 h 29 min

Bit rate mode : Constant

Bit rate : 384 kb/s

Channel(s) : 6 channels

Channel positions : Front: L C R, Side: L R, LFE

Sampling rate : 48.0 kHz

Frame rate : 31.250 FPS (1536 spf)

Compression mode : Lossy

Stream size : 247 MiB (13%)

Title : iTunes

Language : Russian

Default : Yes

Forced : No



Audio #2

ID : 3

Format : AC-3

Format/Info : Audio Coding 3

Mode extension : CM (complete main)

Format settings, Endianness : Big

Codec ID : A_AC3

Duration : 1 h 29 min

Bit rate mode : Constant

Bit rate : 384 kb/s

Channel(s) : 6 channels

Channel positions : Front: L C R, Side: L R, LFE

Sampling rate : 48.0 kHz

Frame rate : 31.250 FPS (1536 spf)

Compression mode : Lossy

Stream size : 247 MiB (13%)

Title : MVO (NewStudio)

Language : Russian

Default : No

Forced : No



Audio #3

ID : 4

Format : AC-3

Format/Info : Audio Coding 3

Mode extension : CM (complete main)

Format settings, Endianness : Big

Codec ID : A_AC3

Duration : 1 h 29 min

Bit rate mode : Constant

Bit rate : 448 kb/s

Channel(s) : 6 channels

Channel positions : Front: L C R, Side: L R, LFE

Sampling rate : 48.0 kHz

Frame rate : 31.250 FPS (1536 spf)

Compression mode : Lossy

Stream size : 288 MiB (16%)

Title : MVO (HDRezka Studio)

Language : Russian

Default : No

Forced : No



Text #1

ID : 5

Format : UTF-8

Codec ID : S_TEXT/UTF8

Codec ID/Info : UTF-8 Plain Text

Title : Forced (for MVO)

Language : Russian

Default : No

Forced : No



Text #2

ID : 6

Format : UTF-8

Codec ID : S_TEXT/UTF8

Codec ID/Info : UTF-8 Plain Text

Title : Full

Language : Russian

Default : No

Forced : No



Text #3

ID : 7

Format : UTF-8

Codec ID : S_TEXT/UTF8

Codec ID/Info : UTF-8 Plain Text

Language : English

Default : No

Forced : No















Релиз от:



Автор релиза:

Discussion

Comments 0

Post Your Comment

Files in this torrent

FILENAMESIZE
Palm.Springs.2020.WEB-DLRip.AVC.ExKinoRay.mkv1.8 GB

Alternative Torrents for 'Palm Springs DLRip AVC'.

TORRENT NAMEADDEDSIZESEEDSPEERSHEALTH
8/13/20201.8 GB00