Project Power 2020 1080p NF WEB-DL DDP5 1 X264-EniaHD

Torrent Details

Project Power 2020 1080p NF WEB-DL DDP5 1 x264<span style=color:#fc9c6d>-EniaHD</span>
Project Power 2020 1080p NF WEB-DL DDP5 1 x264<span style=color:#fc9c6d>-EniaHD</span>

NAME
Project Power 2020 1080p NF WEB-DL DDP5 1 x264-EniaHD.torrent
CATEGORY
Movies
INFOHASH
dde055e844572ef9c583eb9ca2bb9308d5b72c76
SIZE
6.2 GB in 1 file
ADDED
Uploaded on 14-08-2020 by our crawler pet called "Spidey".
SWARM
0 seeders & 0 peers
RATING
No votes yet.

Please login to vote for this torrent.


Description

Информация о фильме

Название: Проект Power

Оригинальное название: Project Power

Год выхода: 2020

Жанр: боевик, криминал, фантастика

Режиссер: Генри Джуст, Эриель Шульман

В ролях: Джейми Фокс, Джозеф Гордон-Левитт, Доминик Фишбэк, Родриго Санторо, Кортни Б. Вэнс, Эми Ландекер, Клдсон Бэйкер, Тейт Флетчер, Аллен Мальдонадо, Андрин Уорд-Хэммонд и др.



Описание: В Новом Орлеане появляется странная пилюля, способная подарить суперспособности любому желающему. За появлением пилюли на улицах города стоит некая таинственная организация. Со стороны может показаться, что их изобретение — невероятный дар, но далеко не все выживают после получения суперспособностей. Невозможно предугадать, какие силы получит человек: кто-то становится невидимым или супербыстрым, но некоторых ждёт смертельный исход. Вдобавок ко всему способности приводят к новой волне криминальных разборок. Местный коп вместе с бывшим военным и девочкой, торговавшей наркотиками, берутся выследить людей, создавших пилюлю.







Страна: США

Продолжительность: 01:51:00

Перевод: профессиональный (дублированный) Пифагор

Субтитры: русские (Forced, Full), английские (SDH), немецкие, испанские, французкие, итальянские, польские, португальские, румынские, турецкие

Оригинальная аудиодорожка: английский



Файл

Качество: WEB-DL 1080p

Видео: 1920x1080 at 24.000 fps, [email protected], 5800 kbps

Аудио 1: Russian E-AC3, 48 kHz, 6 ch, 640 kbps

Аудио 2: English E-AC3 JOC, 48 kHz, 6 ch, 768 kbps

Аудио 3: E-AC3, 48 kHz, 6 ch, 640 kbps - тифлокомментирование



Скриншоты

MediaInfoGeneral

Unique ID : 721636784946345363048520219951768994 (0x8AFB70C234B7283EE51B0DDD1225A2)

Complete name : Project.Power.2020.1080p.NF.WEB-DL.DDP5.1.x264-EniaHD.mkv

Format : Matroska

Format version : Version 4

File size : 5.64 GiB

Duration : 1 h 53 min

Overall bit rate mode : Variable

Overall bit rate : 7 133 kb/s

Movie name : Project Power (2020) - EniaHD

Encoded date : UTC 2020-08-14 07:05:05

Writing application : mkvmerge v49.0.0 ('Sick Of Losing Soulmates') 64-bit

Writing library : libebml v1.4.0 + libmatroska v1.6.1



Video

ID : 1

Format : AVC

Format/Info : Advanced Video Codec

Format profile : [email protected]

Format settings : CABAC / 3 Ref Frames

Format settings, CABAC : Yes

Format settings, Reference fra : 3 frames

Codec ID : V_MPEG4/ISO/AVC

Duration : 1 h 53 min

Bit rate mode : Variable

Bit rate : 5 800 kb/s

Maximum bit rate : 8 700 kb/s

Width : 1 920 pixels

Height : 1 080 pixels

Display aspect ratio : 16:9

Frame rate mode : Constant

Frame rate : 24.000 FPS

Color space : YUV

Chroma subsampling : 4:2:0

Bit depth : 8 bits

Scan type : Progressive

Bits/(Pixel*Frame) : 0.117

Stream size : 4.53 GiB (80%)

Writing library : x264 core 148 r2722 1b0121b

Encoding settings : cabac=1 / ref=3 / deblock=1:0:0 / analyse=0x1:0x111 / me=umh / subme=10 / psy=1 / psy_rd=1.00:0.00 / mixed_ref=1 / me_range=24 / chroma_me=1 / trellis=2 / 8x8dct=0 / cqm=0 / deadzone=21,11 / fast_pskip=1 / chroma_qp_offset=-2 / threads=8 / lookahead_threads=1 / sliced_threads=0 / nr=0 / decimate=1 / interlaced=0 / bluray_compat=0 / stitchable=1 / constrained_intra=0 / bframes=2 / b_pyramid=0 / b_adapt=2 / b_bias=0 / direct=3 / weightb=1 / open_gop=0 / weightp=2 / keyint=250 / keyint_min=24 / scenecut=0 / intra_refresh=0 / rc_lookahead=48 / rc=2pass / mbtree=1 / bitrate=5800 / ratetol=1.0 / qcomp=0.50 / qpmin=6 / qpmax=51 / qpstep=4 / cplxblur=20.0 / qblur=0.5 / vbv_maxrate=8700 / vbv_bufsize=11600 / nal_hrd=vbr / filler=0 / ip_ratio=1.40 / aq=1:1.00

Default : Yes

Forced : No



Audio #1

ID : 2

Format : E-AC-3

Format/Info : Enhanced AC-3

Commercial name : Dolby Digital Plus

Codec ID : A_EAC3

Duration : 1 h 53 min

Bit rate mode : Constant

Bit rate : 640 kb/s

Channel(s) : 6 channels

Channel layout : L R C LFE Ls Rs

Sampling rate : 48.0 kHz

Frame rate : 31.250 FPS (1536 SPF)

Compression mode : Lossy

Stream size : 519 MiB (9%)

Language : Russian

Service kind : Complete Main

Default : Yes

Forced : No



Audio #2

ID : 3

Format : E-AC-3 JOC

Format/Info : Enhanced AC-3 with Joint Object Coding

Commercial name : Dolby Digital Plus with Dolby Atmos

Codec ID : A_EAC3

Duration : 1 h 53 min

Bit rate mode : Constant

Bit rate : 768 kb/s

Channel(s) : 6 channels

Channel layout : L R C LFE Ls Rs

Sampling rate : 48.0 kHz

Frame rate : 31.250 FPS (1536 SPF)

Compression mode : Lossy

Stream size : 622 MiB (11%)

Language : English

Service kind : Complete Main

Default : No

Forced : No

Complexity index : 16

Number of dynamic objects : 15

Bed channel count : 1 channel

Bed channel configuration : LFE



Text #1

ID : 4

Format : UTF-8

Codec ID : S_TEXT/UTF8

Codec ID/Info : UTF-8 Plain Text

Duration : 1 h 51 min

Bit rate : 1 b/s

Count of elements : 37

Stream size : 1.31 KiB (0%)

Title : Forced

Language : Russian

Default : Yes

Forced : No



Text #2

ID : 5

Format : UTF-8

Codec ID : S_TEXT/UTF8

Codec ID/Info : UTF-8 Plain Text

Duration : 1 h 51 min

Bit rate : 71 b/s

Count of elements : 1408

Stream size : 58.4 KiB (0%)

Language : Russian

Default : No

Forced : No



Text #3

ID : 6

Format : UTF-8

Codec ID : S_TEXT/UTF8

Codec ID/Info : UTF-8 Plain Text

Duration : 1 h 45 min

Bit rate : 78 b/s

Count of elements : 1910

Stream size : 60.8 KiB (0%)

Title : SDH

Language : English

Default : No

Forced : No



Text #4

ID : 7

Format : UTF-8

Codec ID : S_TEXT/UTF8

Codec ID/Info : UTF-8 Plain Text

Duration : 1 h 51 min

Bit rate : 44 b/s

Count of elements : 1298

Stream size : 35.9 KiB (0%)

Language : German

Default : No

Forced : No



Text #5

ID : 8

Format : UTF-8

Codec ID : S_TEXT/UTF8

Codec ID/Info : UTF-8 Plain Text

Duration : 1 h 51 min

Bit rate : 48 b/s

Count of elements : 1310

Stream size : 39.2 KiB (0%)

Language : Spanish

Default : No

Forced : No



Text #6

ID : 9

Format : UTF-8

Codec ID : S_TEXT/UTF8

Codec ID/Info : UTF-8 Plain Text

Duration : 1 h 51 min

Bit rate : 46 b/s

Count of elements : 1376

Stream size : 38.2 KiB (0%)

Language : French

Default : No

Forced : No



Text #7

ID : 10

Format : UTF-8

Codec ID : S_TEXT/UTF8

Codec ID/Info : UTF-8 Plain Text

Duration : 1 h 51 min

Bit rate : 45 b/s

Count of elements : 1323

Stream size : 37.3 KiB (0%)

Language : Italian

Default : No

Forced : No



Text #8

ID : 11

Format : UTF-8

Codec ID : S_TEXT/UTF8

Codec ID/Info : UTF-8 Plain Text

Duration : 1 h 51 min

Bit rate : 44 b/s

Count of elements : 1369

Stream size : 36.0 KiB (0%)

Language : Polish

Default : No

Forced : No



Text #9

ID : 12

Format : UTF-8

Codec ID : S_TEXT/UTF8

Codec ID/Info : UTF-8 Plain Text

Duration : 1 h 43 min

Bit rate : 51 b/s

Count of elements : 1309

Stream size : 38.9 KiB (0%)

Title : Brazilian

Language : Portuguese

Default : No

Forced : No



Text #10

ID : 13

Format : UTF-8

Codec ID : S_TEXT/UTF8

Codec ID/Info : UTF-8 Plain Text

Duration : 1 h 51 min

Bit rate : 47 b/s

Count of elements : 1366

Stream size : 38.9 KiB (0%)

Language : Romanian

Default : No

Forced : No



Text #11

ID : 14

Format : UTF-8

Codec ID : S_TEXT/UTF8

Codec ID/Info : UTF-8 Plain Text

Duration : 1 h 51 min

Bit rate : 46 b/s

Count of elements : 1381

Stream size : 38.2 KiB (0%)

Language : Turkish

Default : No

Forced : No

Discussion

Comments 0

Post Your Comment

Files in this torrent

FILENAMESIZE
Project.Power.2020.1080p.NF.WEB-DL.DDP5.1.x264-EniaHD.mkv6.2 GB

Alternative Torrents for 'Project Power NF DDP'.

TORRENT NAMEADDEDSIZESEEDSPEERSHEALTH
8/15/20204.3 GB00