Project Power 2020 NF WEB-DL 720p SeleZen

Torrent Details

Project Power 2020 NF WEB-DL 720p<span style=color:#fc9c6d> seleZen</span>
Project Power 2020 NF WEB-DL 720p<span style=color:#fc9c6d> seleZen</span>

NAME
Project Power 2020 NF WEB-DL 720p seleZen.torrent
CATEGORY
Movies
INFOHASH
3cb1d0890bcc5bf8e19e29113e101db9a11e6505
SIZE
4 GB in 1 file
ADDED
Uploaded on 14-08-2020 by our crawler pet called "Spidey".
SWARM
0 seeders & 0 peers
RATING
No votes yet.

Please login to vote for this torrent.


Description

Информация о фильме

Название: Проект Power

Оригинальное название: Project Power

Год выхода: 2020

Жанр: Боевик, фантастика, триллер

Режиссер: Генри Джуст, Эриель Шульман

В ролях: Джейми Фокс, Джозеф Гордон-Левитт, Доминик Фишбэк, Родриго Санторо, Кортни Б. Вэнс, Эми Ландекер, Тейт Флетчер, Аллен Мальдонадо, Андрин Уорд-Хэммонд







О фильме: В Новом Орлеане появляется странная пилюля, способная подарить суперспособности любому желающему. За появлением пилюли на улицах города стоит некая таинственная организация. Со стороны может показаться, что их изобретение — невероятный дар, но далеко не все выживают после получения суперспособностей. Невозможно предугадать, какие силы получит человек: кто-то становится невидимым или супербыстрым, но некоторых ждёт смертельный исход. Вдобавок ко всему способности приводят к новой волне криминальных разборок. Местный коп вместе с бывшим военным и девочкой, торговавшей наркотиками, берутся выследить людей, создавших пилюлю.



Страна: США

Студия: NetFlix, Screen Arcade, Supermarché

Продолжительность: 01:53:16

Перевод: Дублированный | Netflix



Качество: WEB-DL 720p

Видео: MPEG-4 AVC, 1280x720, 3000 Kbit/s, 24.000 fps

Аудио #01: 48 kHz, E-AC3, 5.1, 640 Kbps | Netflix | RUS |

Аудио #02: 48 kHz, AC3, 5.1, 640 Kbps | Netflix | RUS |

Аудио #03: 48 kHz, E-AC3+Atmos, 5.1, 768 Kbps | Оригинал | ENG |

Субтитры: Русские (Forced, full), английские







MIGeneral

Unique ID : 2303029724129375526026406401149203022 (0x1BB8C21CE8D2ACCDA13A4F3ED23724E)

Complete name : E:Video111Project.Power.2020.NF.WEB-DL.720p.seleZen.mkv

Format : Matroska

Format version : Version 4

File size : 3.96 GiB

Duration : 1 h 53 min

Overall bit rate mode : Variable

Overall bit rate : 5 011 kb/s

Movie name : Project Power 2020 from селезень

Encoded date : UTC 2020-08-14 07:19:01

Writing application : mkvmerge v40.0.0 ('Old Town Road + Pony') 64-bit

Writing library : libebml v1.3.9 + libmatroska v1.5.2



Video

ID : 1

Format : AVC

Format/Info : Advanced Video Codec

Format profile : [email protected]

Format settings : CABAC / 3 Ref Frames

Format settings, CABAC : Yes

Format settings, Reference frames : 3 frames

Codec ID : V_MPEG4/ISO/AVC

Duration : 1 h 53 min

Bit rate mode : Variable

Bit rate : 3 000 kb/s

Maximum bit rate : 4 500 kb/s

Width : 1 280 pixels

Height : 720 pixels

Display aspect ratio : 16:9

Frame rate mode : Constant

Frame rate : 24.000 FPS

Color space : YUV

Chroma subsampling : 4:2:0

Bit depth : 8 bits

Scan type : Progressive

Bits/(Pixel*Frame) : 0.136

Stream size : 2.34 GiB (59%)

Writing library : x264 core 148 r2722 1b0121b

Encoding settings : cabac=1 / ref=3 / deblock=1:0:0 / analyse=0x1:0x111 / me=umh / subme=10 / psy=1 / psy_rd=1.00:0.00 / mixed_ref=1 / me_range=24 / chroma_me=1 / trellis=2 / 8x8dct=0 / cqm=0 / deadzone=21,11 / fast_pskip=1 / chroma_qp_offset=-2 / threads=8 / lookahead_threads=1 / sliced_threads=0 / nr=0 / decimate=1 / interlaced=0 / bluray_compat=0 / stitchable=1 / constrained_intra=0 / bframes=2 / b_pyramid=0 / b_adapt=2 / b_bias=0 / direct=3 / weightb=1 / open_gop=0 / weightp=2 / keyint=250 / keyint_min=24 / scenecut=0 / intra_refresh=0 / rc_lookahead=48 / rc=2pass / mbtree=1 / bitrate=3000 / ratetol=1.0 / qcomp=0.50 / qpmin=6 / qpmax=51 / qpstep=4 / cplxblur=20.0 / qblur=0.5 / vbv_maxrate=4500 / vbv_bufsize=6000 / nal_hrd=vbr / filler=0 / ip_ratio=1.40 / aq=1:1.00

Language : English

Default : Yes

Forced : No



Audio #1

ID : 2

Format : E-AC-3

Format/Info : Enhanced AC-3

Commercial name : Dolby Digital Plus

Codec ID : A_EAC3

Duration : 1 h 53 min

Bit rate mode : Constant

Bit rate : 640 kb/s

Channel(s) : 6 channels

Channel layout : L R C LFE Ls Rs

Sampling rate : 48.0 kHz

Frame rate : 31.250 FPS (1536 SPF)

Compression mode : Lossy

Stream size : 518 MiB (13%)

Title : Dub

Language : Russian

Service kind : Complete Main

Default : Yes

Forced : Yes



Audio #2

ID : 3

Format : AC-3

Format/Info : Audio Coding 3

Commercial name : Dolby Digital

Codec ID : A_AC3

Duration : 1 h 53 min

Bit rate mode : Constant

Bit rate : 640 kb/s

Channel(s) : 6 channels

Channel layout : L R C LFE Ls Rs

Sampling rate : 48.0 kHz

Frame rate : 31.250 FPS (1536 SPF)

Compression mode : Lossy

Stream size : 518 MiB (13%)

Title : Dub

Language : Russian

Service kind : Complete Main

Default : No

Forced : No



Audio #3

ID : 4

Format : E-AC-3 JOC

Format/Info : Enhanced AC-3 with Joint Object Coding

Commercial name : Dolby Digital Plus with Dolby Atmos

Codec ID : A_EAC3

Duration : 1 h 53 min

Bit rate mode : Constant

Bit rate : 768 kb/s

Channel(s) : 6 channels

Channel layout : L R C LFE Ls Rs

Sampling rate : 48.0 kHz

Frame rate : 31.250 FPS (1536 SPF)

Compression mode : Lossy

Stream size : 622 MiB (15%)

Title : Original

Language : English

Service kind : Complete Main

Default : No

Forced : No

Complexity index : 16

Number of dynamic objects : 15

Bed channel count : 1 channel

Bed channel configuration : LFE



Text #1

ID : 5

Format : UTF-8

Codec ID : S_TEXT/UTF8

Codec ID/Info : UTF-8 Plain Text

Duration : 1 h 51 min

Bit rate : 1 b/s

Count of elements : 37

Stream size : 1.31 KiB (0%)

Title : Forced

Language : Russian

Default : Yes

Forced : Yes



Text #2

ID : 6

Format : UTF-8

Codec ID : S_TEXT/UTF8

Codec ID/Info : UTF-8 Plain Text

Duration : 1 h 51 min

Bit rate : 71 b/s

Count of elements : 1408

Stream size : 58.4 KiB (0%)

Title : Full

Language : Russian

Default : No

Forced : No



Text #3

ID : 7

Format : UTF-8

Codec ID : S_TEXT/UTF8

Codec ID/Info : UTF-8 Plain Text

Duration : 2 s 625 ms

Bit rate : 64 b/s

Count of elements : 1

Stream size : 21.0 Bytes (0%)

Title : Forced

Language : English

Default : No

Forced : No



Text #4

ID : 8

Format : UTF-8

Codec ID : S_TEXT/UTF8

Codec ID/Info : UTF-8 Plain Text

Duration : 1 h 45 min

Bit rate : 100 b/s

Count of elements : 1910

Stream size : 77.3 KiB (0%)

Title : Full

Language : English

Default : No

Forced : No



Релиз от:



Discussion

Comments 0

Post Your Comment

Files in this torrent

FILENAMESIZE
Project.Power.2020.NF.WEB-DL.720p.seleZen.mkv4 GB

Alternative Torrents for 'Project Power NF'.

TORRENT NAMEADDEDSIZESEEDSPEERSHEALTH
9/14/20205 GB00
9/7/2020843 MB00
9/3/2020603 MB00
9/3/202012.2 GB00
9/1/20205.6 GB00
9/1/20203.8 GB00
8/24/202017.2 GB00
8/20/20201.2 GB00
8/17/20201.3 GB00
8/17/20205.1 GB00
8/17/20205.1 GB00
8/17/202013.9 GB00
8/16/20202.3 GB00
8/16/20203 GB00
8/15/20202 GB00