Project Power 2020 NF WEB-DL 1080p HDR SeleZen

Torrent Details

Project Power 2020 NF WEB-DL 1080p HDR<span style=color:#fc9c6d> seleZen</span>
Project Power 2020 NF WEB-DL 1080p HDR<span style=color:#fc9c6d> seleZen</span>

NAME
Project Power 2020 NF WEB-DL 1080p HDR seleZen.torrent
CATEGORY
Movies
INFOHASH
2d9aa864d68e13a4a6d6d154a3ec2872f230d33d
SIZE
6.1 GB in 1 file
ADDED
Uploaded on 14-08-2020 by our crawler pet called "Spidey".
SWARM
0 seeders & 0 peers
RATING
No votes yet.

Please login to vote for this torrent.


Description

Информация о фильме

Название: Проект Power

Оригинальное название: Project Power

Год выхода: 2020

Жанр: Боевик, фантастика, триллер

Режиссер: Генри Джуст, Эриель Шульман

В ролях: Джейми Фокс, Джозеф Гордон-Левитт, Доминик Фишбэк, Родриго Санторо, Кортни Б. Вэнс, Эми Ландекер, Тейт Флетчер, Аллен Мальдонадо, Андрин Уорд-Хэммонд







О фильме: В Новом Орлеане появляется странная пилюля, способная подарить суперспособности любому желающему. За появлением пилюли на улицах города стоит некая таинственная организация. Со стороны может показаться, что их изобретение — невероятный дар, но далеко не все выживают после получения суперспособностей. Невозможно предугадать, какие силы получит человек: кто-то становится невидимым или супербыстрым, но некоторых ждёт смертельный исход. Вдобавок ко всему способности приводят к новой волне криминальных разборок. Местный коп вместе с бывшим военным и девочкой, торговавшей наркотиками, берутся выследить людей, создавших пилюлю.



Страна: США

Студия: NetFlix, Screen Arcade, Supermarché

Продолжительность: 01:53:16

Перевод: Дублированный | Netflix



Качество: WEB-DL 1080p

Видео: 1920x1080 at 24.000 fps, MPEG-H HEVC HDR Video, 5705 kbps avg

Аудио #01: 48 kHz, E-AC3, 5.1, 640 Kbps | Netflix | RUS |

Аудио #02: 48 kHz, AC3, 5.1, 640 Kbps | Netflix | RUS |

Аудио #03: 48 kHz, E-AC3+Atmos, 5.1, 768 Kbps | Оригинал | ENG |

Субтитры: Русские (Forced, full), английские







MIGeneral

Unique ID : 123403348896935690141562993563200259864 (0x5CD69ED84A4E4196D4E59CDEF5B60718)

Complete name : E:Video111Project.Power.2020.NF.WEB-DL.1080p.HDR.seleZen.mkv

Format : Matroska

Format version : Version 4

File size : 6.08 GiB

Duration : 1 h 53 min

Overall bit rate : 7 687 kb/s

Movie name : Project Power 2020 from селезень

Encoded date : UTC 2020-08-14 07:37:06

Writing application : mkvmerge v40.0.0 ('Old Town Road + Pony') 64-bit

Writing library : libebml v1.3.9 + libmatroska v1.5.2



Video

ID : 1

Format : HEVC

Format/Info : High Efficiency Video Coding

Format profile : Main [email protected]@Main

HDR format : SMPTE ST 2086, HDR10 compatible

Codec ID : V_MPEGH/ISO/HEVC

Duration : 1 h 51 min

Bit rate : 5 705 kb/s

Width : 1 920 pixels

Height : 1 080 pixels

Display aspect ratio : 16:9

Frame rate mode : Constant

Frame rate : 24.000 FPS

Color space : YUV

Chroma subsampling : 4:2:0 (Type 2)

Bit depth : 10 bits

Bits/(Pixel*Frame) : 0.115

Stream size : 4.46 GiB (73%)

Language : English

Default : Yes

Forced : No

Color range : Limited

Color primaries : BT.2020

Transfer characteristics : PQ

Matrix coefficients : BT.2020 non-constant

Mastering display color primaries : Display P3

Mastering display luminance : min: 0.0001 cd/m2, max: 1000 cd/m2

Maximum Content Light Level : 738 cd/m2

Maximum Frame-Average Light Level : 131 cd/m2



Audio #1

ID : 2

Format : E-AC-3

Format/Info : Enhanced AC-3

Commercial name : Dolby Digital Plus

Codec ID : A_EAC3

Duration : 1 h 53 min

Bit rate mode : Constant

Bit rate : 640 kb/s

Channel(s) : 6 channels

Channel layout : L R C LFE Ls Rs

Sampling rate : 48.0 kHz

Frame rate : 31.250 FPS (1536 SPF)

Compression mode : Lossy

Stream size : 518 MiB (8%)

Title : Dub

Language : Russian

Service kind : Complete Main

Default : Yes

Forced : Yes



Audio #2

ID : 3

Format : AC-3

Format/Info : Audio Coding 3

Commercial name : Dolby Digital

Codec ID : A_AC3

Duration : 1 h 53 min

Bit rate mode : Constant

Bit rate : 640 kb/s

Channel(s) : 6 channels

Channel layout : L R C LFE Ls Rs

Sampling rate : 48.0 kHz

Frame rate : 31.250 FPS (1536 SPF)

Compression mode : Lossy

Stream size : 518 MiB (8%)

Title : Dub

Language : Russian

Service kind : Complete Main

Default : No

Forced : No



Audio #3

ID : 4

Format : E-AC-3 JOC

Format/Info : Enhanced AC-3 with Joint Object Coding

Commercial name : Dolby Digital Plus with Dolby Atmos

Codec ID : A_EAC3

Duration : 1 h 53 min

Bit rate mode : Constant

Bit rate : 768 kb/s

Channel(s) : 6 channels

Channel layout : L R C LFE Ls Rs

Sampling rate : 48.0 kHz

Frame rate : 31.250 FPS (1536 SPF)

Compression mode : Lossy

Stream size : 622 MiB (10%)

Title : Original

Language : English

Service kind : Complete Main

Default : No

Forced : No

Complexity index : 16

Number of dynamic objects : 15

Bed channel count : 1 channel

Bed channel configuration : LFE



Text #1

ID : 5

Format : UTF-8

Codec ID : S_TEXT/UTF8

Codec ID/Info : UTF-8 Plain Text

Duration : 1 h 51 min

Bit rate : 1 b/s

Count of elements : 37

Stream size : 1.31 KiB (0%)

Title : Forced

Language : Russian

Default : Yes

Forced : Yes



Text #2

ID : 6

Format : UTF-8

Codec ID : S_TEXT/UTF8

Codec ID/Info : UTF-8 Plain Text

Duration : 1 h 51 min

Bit rate : 71 b/s

Count of elements : 1408

Stream size : 58.4 KiB (0%)

Title : Full

Language : Russian

Default : No

Forced : No



Text #3

ID : 7

Format : UTF-8

Codec ID : S_TEXT/UTF8

Codec ID/Info : UTF-8 Plain Text

Duration : 2 s 625 ms

Bit rate : 64 b/s

Count of elements : 1

Stream size : 21.0 Bytes (0%)

Title : Forced

Language : English

Default : No

Forced : No



Text #4

ID : 8

Format : UTF-8

Codec ID : S_TEXT/UTF8

Codec ID/Info : UTF-8 Plain Text

Duration : 1 h 45 min

Bit rate : 100 b/s

Count of elements : 1910

Stream size : 77.3 KiB (0%)

Title : Full

Language : English

Default : No

Forced : No



Релиз от:



Discussion

Comments 0

Post Your Comment

Files in this torrent

FILENAMESIZE
Project.Power.2020.NF.WEB-DL.1080p.HDR.seleZen.mkv6.1 GB

Alternative Torrents for 'Project Power NF HDR'.

TORRENT NAMEADDEDSIZESEEDSPEERSHEALTH
8/24/202017.2 GB00
8/17/202013.9 GB00
8/14/20206.1 GB00