Dirty John (2020) 720p S02 COMPLETE NF WEB-DL [Hindi + English] X264 DD 5.1 ESubs 2.6GB - MOVCR ExClusive

Torrent Details

Dirty John (2020) 720p S02 COMPLETE NF WEB-DL [Hindi + English] x264 DD 5.1 ESubs 2.6GB - MOVCR ExClusive

NAME
Dirty John (2020) 720p S02 COMPLETE NF WEB-DL [Hindi + English] x264 DD 5.1 ESubs 2.6GB - MOVCR ExClusive.torrent
CATEGORY
Television
INFOHASH
51a58c32c9f2c0aa99d45bfbef8dc48b99dfa0b5
SIZE
2.6 GB in 9 files
ADDED
Uploaded on 15-08-2020 by our crawler pet called "Spidey".
SWARM
4 seeders & 0 peers
RATING
No votes yet.

Please login to vote for this torrent.


Description

https://MovCr.st





















Dirty John (2020) 720p S02 COMPLETE NF WEB-DL [Hindi + English] x264 DD+5.1 ESubs 2.6GB - MOVCR ExClusive

















IMDB Link : https://www.imdb.com/title/tt7945720/



Plot :



Anthology series in which each season is based on a true crime story featuring an epic tale of love gone wrong.









Video

ID                          : 1

Format                      : AVC

Format/Info                 : Advanced Video Codec

Format profile              : [email protected]

Format settings             : CABAC / 3 Ref Frames

Format settings, CABAC      : Yes

Format settings, Reference  : 3 frames

Codec ID                    : V_MPEG4/ISO/AVC

Duration                    : 47 min 47 s

Bit rate                    : 882 kb/s

Width                       : 1 280 pixels

Height                      : 720 pixels

Display aspect ratio        : 16:9

Frame rate mode             : Constant

Frame rate                  : 23.976 (24000/1001) FPS

Color space                 : YUV

Chroma subsampling          : 4:2:0

Bit depth                   : 8 bits

Scan type                   : Progressive

Bits/(Pixel*Frame)          : 0.040

Stream size                 : 301 MiB (70%)

Title                       : www.MovCr.st

Default                     : Yes

Forced                      : No



Audio #1

ID                          : 2

Format                      : E-AC-3

Format/Info                 : Enhanced AC-3

Commercial name             : Dolby Digital Plus

Codec ID                    : A_EAC3

Duration                    : 47 min 49 s

Bit rate mode               : Constant

Bit rate                    : 192 kb/s

Channel(s)                  : 6 channels

Channel layout              : L R C LFE Ls Rs

Sampling rate               : 48.0 kHz

Frame rate                  : 31.250 FPS (1536 SPF)

Compression mode            : Lossy

Stream size                 : 65.7 MiB (15%)

Language                    : Hindi

Service kind                : Complete Main

Default                     : Yes

Forced                      : No



Audio #2

ID                          : 3

Format                      : E-AC-3

Format/Info                 : Enhanced AC-3

Commercial name             : Dolby Digital Plus

Codec ID                    : A_EAC3

Duration                    : 47 min 49 s

Bit rate mode               : Constant

Bit rate                    : 192 kb/s

Channel(s)                  : 6 channels

Channel layout              : L R C LFE Ls Rs

Sampling rate               : 48.0 kHz

Frame rate                  : 31.250 FPS (1536 SPF)

Compression mode            : Lossy

Stream size                 : 65.7 MiB (15%)

Language                    : English

Service kind                : Complete Main

Default                     : No

Forced                      : No



Text

ID                          : 4

Format                      : UTF-8

Codec ID                    : S_TEXT/UTF8

Codec ID/Info               : UTF-8 Plain Text

Duration                    : 46 min 2 s

Bit rate                    : 87 b/s

Count of elements           : 889

Stream size                 : 29.5 KiB (0%)

Language                    : English

Default                     : Yes

Forced                      : No





















Discussion

Comments 0

Post Your Comment

Files in this torrent

FILENAMESIZE
Torrent_Downloaded_From_www.MovCr.st.txt218 B
[S02.E01] Dirty John - No Fault - www.MovCr.st.mkv433.5 MB
[S02.E02] Dirty John - The Turtle and the Alligator - MOVCR.mkv347.6 MB
[S02.E03] Dirty John - Marriage Encounter - MOVCR.mkv313.7 MB
[S02.E04] Dirty John - More to It Than Fun - MOVCR.mkv364.2 MB
[S02.E05] Dirty John - Scream Therapy - MOVCR.mkv334.7 MB
[S02.E06] Dirty John - The Twelfth of Never - MOVCR.mkv297.4 MB
[S02.E07] Dirty John - The Shillelagh - MOVCR.mkv310.1 MB
[S02.E08] Dirty John - Perception Is Reality - www.MovCr.st.mkv298.9 MB

Alternative Torrents for 'Dirty John COMPLETE NF Hindi English DD ESubs MOVCR ExClusive'.

TORRENT NAMEADDEDSIZESEEDSPEERSHEALTH
8/15/20202.6 GB40