Stargirl 2020 MULTI 2160p HDR WEBRIP Atmos 5 1 HEVC-DDR

Torrent Details

Stargirl 2020 MULTI 2160p HDR WEBRIP Atmos 5 1 HEVC-DDR
Stargirl 2020 MULTI 2160p HDR WEBRIP Atmos 5 1 HEVC-DDR

NAME
Stargirl 2020 MULTI 2160p HDR WEBRIP Atmos 5 1 HEVC-DDR.torrent
CATEGORY
Movies
INFOHASH
1e5fbf65c2293f01e9135042b7d0734396c05424
SIZE
7.8 GB in 1 file
ADDED
Uploaded on 16-08-2020 by our crawler pet called "Spidey".
SWARM
0 seeders & 0 peers
RATING
No votes yet.

Please login to vote for this torrent.


Description













Format                                   : Matroska

Format version                           : Version 4

File size                                : 7.80 GiB

Duration                                 : 1 h 43 min

Overall bit rate                         : 10.8 Mb/s

Encoded date                             : UTC 2020-08-16 12:05:06

Writing application                      : mkvmerge v47.0.0 ('Black Flag') 64-bit

Writing library                          : libebml v1.3.10 + libmatroska v1.5.2



Video

ID                                       : 1

Format                                   : HEVC

Format/Info                              : High Efficiency Video Coding

Commercial name                          : HDR10

Format profile                           : Main [email protected]@High

Codec ID                                 : V_MPEGH/ISO/HEVC

Duration                                 : 1 h 43 min

Bit rate                                 : 9 783 kb/s

Width                                    : 3 840 pixels

Height                                   : 1 920 pixels

Display aspect ratio                     : 2.000

Frame rate mode                          : Constant

Frame rate                               : 23.976 (24000/1001) FPS

Color space                              : YUV

Chroma subsampling                       : 4:2:0

Bit depth                                : 10 bits

Bits/(Pixel*Frame)                       : 0.055

Stream size                              : 7.06 GiB (91%)

Language                                 : English

Default                                  : Yes

Forced                                   : No

Color range                              : Limited

Color primaries                          : BT.2020

Transfer characteristics                 : PQ

Matrix coefficients                      : BT.2020 non-constant

Mastering display color primaries        : BT.2020

Mastering display luminance              : min: 0.0001 cd/m2, max: 1000 cd/m2

Maximum Content Light Level              : 954 cd/m2

Maximum Frame-Average Light Level        : 32 cd/m2



Audio #1

ID                                       : 2

Format                                   : E-AC-3 JOC

Format/Info                              : Enhanced AC-3 with Joint Object Coding

Commercial name                          : Dolby Digital Plus with Dolby Atmos

Codec ID                                 : A_EAC3

Duration                                 : 1 h 43 min

Bit rate mode                            : Constant

Bit rate                                 : 768 kb/s

Channel(s)                               : 6 channels

Channel layout                           : L R C LFE Ls Rs

Sampling rate                            : 48.0 kHz

Frame rate                               : 31.250 FPS (1536 SPF)

Compression mode                         : Lossy

Stream size                              : 568 MiB (7%)

Language                                 : English

Service kind                             : Complete Main

Default                                  : No

Forced                                   : No

Complexity index                         : 16

Number of dynamic objects                : 15

Bed channel count                        : 1 channel

Bed channel configuration                : LFE



Audio #2

ID                                       : 3

Format                                   : E-AC-3

Format/Info                              : Enhanced AC-3

Commercial name                          : Dolby Digital Plus

Codec ID                                 : A_EAC3

Duration                                 : 1 h 43 min

Bit rate mode                            : Constant

Bit rate                                 : 256 kb/s

Channel(s)                               : 6 channels

Channel layout                           : L R C LFE Ls Rs

Sampling rate                            : 48.0 kHz

Frame rate                               : 31.250 FPS (1536 SPF)

Compression mode                         : Lossy

Delay relative to video                  : 3 s 0 ms

Stream size                              : 189 MiB (2%)

Language                                 : French

Service kind                             : Complete Main

Default                                  : Yes

Forced                                   : No



Text #1

ID                                       : 4

Format                                   : UTF-8

Codec ID                                 : S_TEXT/UTF8

Codec ID/Info                            : UTF-8 Plain Text

Duration                                 : 1 h 18 min

Bit rate                                 : 0 b/s

Count of elements                        : 4

Stream size                              : 151 Bytes (0%)

Language                                 : French

Default                                  : No

Forced                                   : No



Text #2

ID                                       : 5

Format                                   : UTF-8

Codec ID                                 : S_TEXT/UTF8

Codec ID/Info                            : UTF-8 Plain Text

Duration                                 : 1 h 42 min

Bit rate                                 : 38 b/s

Count of elements                        : 1012

Stream size                              : 28.6 KiB (0%)

Language                                 : French

Default                                  : No

Forced                                   : No



Text #3

ID                                       : 6

Format                                   : UTF-8

Codec ID                                 : S_TEXT/UTF8

Codec ID/Info                            : UTF-8 Plain Text

Duration                                 : 1 h 42 min

Bit rate                                 : 58 b/s

Count of elements                        : 1222

Stream size                              : 43.5 KiB (0%)

Language                                 : English



MikeKhan /Desitorrents.tv

Discussion

Comments 0

Post Your Comment

Files in this torrent

FILENAMESIZE
Stargirl.2020.MULTI.2160p.HDR.WEBRIP.Atmos.5.1.HEVC-DDR.mkv7.8 GB

Alternative Torrents for 'Stargirl MULTI HDR Atmos HEVCDDR'.

TORRENT NAMEADDEDSIZESEEDSPEERSHEALTH
10/20/202010 GB24574
10/23/2020529 MB213122
10/21/20204.4 GB14233
10/21/202012.5 GB10453
10/16/20202.1 GB10335
10/23/20203.9 GB10270
10/17/202029.1 GB9283
10/11/202073.4 GB8290
10/17/202013.4 GB7757
10/16/202078.5 GB6988
10/14/20204.8 GB676
10/22/20206.5 GB6589
10/17/2020250 MB653
10/17/20207.4 GB513
10/11/202041.6 GB5026