Once Upon A Time In Mumbaai Again (2013) Hindi SCAM MPEG - Exclusive

Torrent Details


Once Upon A Time In Mumbaai Again (2013) Hindi SCAM MPEG - Exclusive

NAME
Once Upon A Time In Mumbaai Again (2013) Hindi SCAM MPEG - Exclusive.torrent
CATEGORY
Movies
INFOHASH
c4f2a3f59774c49a6acaebdf0954ff54295f1498
SIZE
750 MB in 3 files
ADDED
Uploaded on 15-08-2013 by our crawler pet called "Spidey".
SWARM
0 seeders & 0 peers
RATING
No votes yet.

Please login to vote for this torrent.


Description

Code:

Info:

Format : MPEG-PS
File size : 749 MiB
Duration : 2h 10mn
Overall bit rate : 800 Kbps

Video
ID : 224 (0xE0)
Format : MPEG Video
Format version : Version 2
Format settings, BVOP : Yes
Format settings, Matrix : Custom
Format settings, GOP : Variable
Duration : 2h 10mn
Bit rate : 720 Kbps
Maximum bit rate : 1 150 Kbps
Width : 352 pixels
Height : 288 pixels
Display aspect ratio : 1.222
Frame rate : 25.000 fps
Standard : PAL
Color space : YUV
Chroma subsampling : 4:2:0
Bit depth : 8 bits
Scan type : Progressive
Compression mode : Lossy
Bits/(Pixel*Frame) : 0.284
Time code of first frame : 00:00:00:00
Time code source : Group of pictures header
Stream size : 674 MiB (90%)

Audio
ID : 192 (0xC0)
Format : MPEG Audio
Format version : Version 1
Format profile : Layer 2
Duration : 2h 10mn
Bit rate mode : Constant
Bit rate : 64.0 Kbps
Channel(s) : 2 channels
Sampling rate : 48.0 KHz
Compression mode : Lossy
Stream size : 59.9 MiB (8%)



Screens:





Discussion

Comments 0

Post Your Comment

Files in this torrent

FILENAMESIZE
Once Upon A Time In Mumbaai Again (2013) Hindi SCAM MPEG - Exclusive.mpg749.3 MB
readme.txt34 B
_____padding_file_0_if you see this file, please update to BitComet 0.85 or above____180 KB

Alternative Torrents for 'Once Upon Time Mumbaai Again Hindi SCAM MPEG Exclusive'.

TORRENT NAMEADDEDSIZESEEDSPEERSHEALTH
8/15/2013750 MB00