The Unbelievable Story Of Carl Beech

Torrent Details


The Unbelievable Story of Carl Beech

NAME
The Unbelievable Story of Carl Beech.torrent
CATEGORY
Television
INFOHASH
30e8e4354c83b0cedd0a33b489ec78b1fbe0e654
SIZE
1.8 GB in 7 files
ADDED
Uploaded on 24-08-2020 by our crawler pet called "Spidey".
SWARM
0 seeders & 0 peers
RATING
No votes yet.

Please login to vote for this torrent.


Description

The Unbelievable Story of Carl Beech (1280x720p HD, 50fps, soft Eng subs)

Directed by critically acclaimed film-maker Vanessa Engle, this documentary tells the jaw-dropping story of Carl Beech, a former nurse from Gloucester who claimed he had been sexually abused by a group of prominent men in the 1970s and 80s. / / The scandal becomes front-page news in 2014 when Beech, better known by his pseudonym Nick, goes public with his incredible allegations, triggering a £2 million police investigation. The film features exclusive interviews with many of the people most closely involved.

First broadcast: 24 August 2020
Duration: 1 hour

Torrent dead? Request reseed at torrentgalaxy.org - or ask at elsonroa at tutanota.com


Media info:-
General
Format : MPEG-4
Format profile : Base Media
Codec ID : isom (isom/iso2/avc1/mp41)
File size : 1.82 GiB
Duration : 58mn 9s
Overall bit rate mode : Variable
Overall bit rate : 4 489 Kbps

Video
ID : 1
Format : AVC
Format/Info : Advanced Video Codec
Format profile : [email protected]
Format settings, CABAC : Yes
Format settings, ReFrames : 4 frames
Codec ID : avc1
Codec ID/Info : Advanced Video Coding
Duration : 58mn 9s
Bit rate : 4 353 Kbps
Width : 1 280 pixels
Height : 720 pixels
Display aspect ratio : 16:9
Frame rate mode : Constant
Frame rate : 50.000 fps
Color space : YUV
Chroma subsampling : 4:2:0
Bit depth : 8 bits
Scan type : Progressive
Bits/(Pixel*Frame) : 0.094
Stream size : 1.77 GiB (97%)
Encoded date : UTC 1904-01-01 00:00:00
Tagged date : UTC 1904-01-01 00:00:00
Color range : Limited
Color primaries : BT.709
Transfer characteristics : BT.709
Matrix coefficients : BT.709

Audio
ID : 2
Format : AAC
Format/Info : Advanced Audio Codec
Format profile : LC
Codec ID : 40
Duration : 58mn 9s
Bit rate mode : Variable
Bit rate : 128 Kbps
Maximum bit rate : 135 Kbps
Channel(s) : 2 channels
Channel positions : Front: L R
Sampling rate : 48.0 KHz
Frame rate : 46.875 fps (1024 spf)
Compression mode : Lossy
Stream size : 53.2 MiB (3%)
Language : English

Discussion

Comments 0

Post Your Comment

Files in this torrent

FILENAMESIZE
About this torrent.txt2 KB
Downloaded from Demonoid - www.dnoid.is.txt56 B
If this torrent is dead.txt112 B
The Unbelievable Story of Carl Beech.jpg772.9 KB
The Unbelievable Story of Carl Beech.mp41.8 GB
The Unbelievable Story of Carl Beech.srt101.3 KB
[TGx]Downloaded from torrentgalaxy.to.txt563 B

Alternative Torrents for 'Unbelievable Story of Carl Beech'.

TORRENT NAMEADDEDSIZESEEDSPEERSHEALTH
10/26/2020796 MB70
10/27/2020265 MB00
10/27/20201.5 GB00
10/27/2020702 MB00
8/26/2020834 MB00
8/24/20201.8 GB00