Underwater (2020) 720p WEBRip X264 AC 3 Dual Aud [ Hin, Eng ] ESub

Torrent Details

Underwater (2020) 720p WEBRip x264 AC 3 Dual Aud [ Hin, Eng ] ESub

NAME
Underwater (2020) 720p WEBRip x264 AC 3 Dual Aud [ Hin, Eng ] ESub.torrent
CATEGORY
Television
INFOHASH
8f332e753decfbd723aba25623b80a4ed4a2d97b
SIZE
988 MB in 1 file
ADDED
Uploaded on 27-08-2020 by our crawler pet called "Spidey".
SWARM
0 seeders & 1 peers
RATING
No votes yet.

Please login to vote for this torrent.


Description

Underwater (2020)
PG-13 | 1h 35min | Action, Horror, Sci-Fi | 10 January 2020 (USA)

A crew of oceanic researchers working for a deep sea drilling company try to get to safety after a mysterious earthquake devastates
their deepwater research and drilling facility located at the bottom of the Mariana Trench.

जब एक भूकंप के बाद उनकी भूमिगत प्रयोगशाला नष्ट हो जाती है, तब जलीय शोधकर्ताओं का एक दल सुरक्षा की ओर प्रस्थान करता है. लेकिन उन्हें समुद्र में छिपे अनजान खतरों का अंदाज़ा नहीं होता.

Director: William Eubank
Writers: Brian Duffield (screenplay by), Adam Cozad (screenplay by)
Stars: Kristen Stewart, Vincent Cassel, Mamoudou Athie.

Format : Matroska
Format version : Version 4
File size : 988 MiB
Duration : 1 h 34 min
Overall bit rate : 1 455 kb/s

Video
ID : 1
Format : AVC
Format/Info : Advanced Video Codec
Format profile : [email protected]
Format settings : CABAC / 4 Ref Frames
Format settings, CABAC : Yes
Format settings, Reference frames : 4 frames
Codec ID : V_MPEG4/ISO/AVC
Duration : 1 h 34 min
Bit rate : 1 080 kb/s
Width : 1 280 pixels
Height : 550 pixels
Display aspect ratio : 2.35:1
Frame rate mode : Constant
Frame rate : 23.976 (24000/1001) FPS
Color space : YUV
Chroma subsampling : 4:2:0
Bit depth : 8 bits
Scan type : Progressive
Bits/(Pixel*Frame) : 0.064
Stream size : 726 MiB (73%)

Audio #1
ID : 2
Format : AC-3
Format/Info : Audio Coding 3
Commercial name : Dolby Digital
Codec ID : A_AC3
Duration : 1 h 34 min
Bit rate mode : Constant
Bit rate : 192 kb/s
Channel(s) : 6 channels
Channel layout : L R C LFE Ls Rs
Sampling rate : 48.0 kHz
Frame rate : 31.250 FPS (1536 SPF)
Compression mode : Lossy
Stream size : 130 MiB (13%)
Language : Hindi
Service kind : Complete Main
Default : Yes
Forced : Yes

Audio #2
ID : 3
Format : AC-3
Format/Info : Audio Coding 3
Commercial name : Dolby Digital
Codec ID : A_AC3
Duration : 1 h 34 min
Bit rate mode : Constant
Bit rate : 192 kb/s
Channel(s) : 6 channels
Channel layout : L R C LFE Ls Rs
Sampling rate : 48.0 kHz
Frame rate : 31.250 FPS (1536 SPF)
Compression mode : Lossy
Stream size : 130 MiB (13%)
Language : English
Service kind : Complete Main
Default : No
Forced : No

Text
ID : 4
Format : ASS
Codec ID : S_TEXT/ASS
Codec ID/Info : Advanced Sub Station Alpha
Duration : 1 h 34 min
Bit rate : 95 b/s
Count of elements : 1388
Compression mode : Lossless
Stream size : 66.3 KiB (0%)
Language : English
Default : No
Forced : No

Discussion

Comments 0

Post Your Comment

Files in this torrent

FILENAMESIZE
Underwater (2020) 720p WEBRip x264 AC 3 Dual Aud [ Hin, Eng ] ESub.mkv987.7 MB

Alternative Torrents for 'Underwater Dual Aud Hin Eng ESub'.

TORRENT NAMEADDEDSIZESEEDSPEERSHEALTH
8/27/2020988 MB01