Downton_Abbey_(Masterpiece_Classic)_S02_E06_720p HDTV X264_TTL

Torrent Details

Downton_Abbey_(Masterpiece_Classic)_S02_E06_720p HDTV x264_TTLDownton_Abbey_(Masterpiece_Classic)_S02_E06_720p HDTV x264_TTL

NAME
Downton_Abbey_(Masterpiece_Classic)_S02_E06_720p HDTV x264_TTL.torrent
CATEGORY
Television
INFOHASH
b4b39899b18c3e67614d7d70c6dc8dfbc8393499
SIZE
2.6 GB in 5 files
ADDED
Uploaded on 28-09-2013 by our crawler pet called "Spidey".
SWARM
0 seeders & 0 peers
RATING
No votes yet.

Please login to vote for this torrent.


Description

This is from the American PBS debut on 2-12-2012.







All the extras are in separate files.











Enjoy and please share.









TTLTTLTTLTTLTTLTTLTTLTTLTTLTTLTTLTTLTTLTTLTTLTTLTTLTTL









Downton_Abbey_(Masterpiece_Classic)_S02_E06_720p.HDTV.x264_TTL.mkv
Format : Matroska
File size : 2.54 GiB
Duration : 1h 51mn
Overall bit rate : 3 269 Kbps
Writing application : HandBrake 0.9.5
Writing library : libmkv 0.6.4.1

Video
ID : 1
Format : AVC
Format/Info : Advanced Video Codec
Format profile : [email protected]
Format settings, CABAC : Yes
Format settings, ReFrames : 4 frames
Muxing mode : Container [email protected]
Codec ID : V_MPEG4/ISO/AVC
Duration : 1h 51mn
Bit rate : 2 980 Kbps
Nominal bit rate : 3 039 Kbps
Width : 1 280 pixels
Height : 720 pixels
Display aspect ratio : 16:9
Frame rate mode : Variable
Frame rate : 29.970 fps
Resolution : 8 bits
Colorimetry : 4:2:0
Scan type : Progressive
Bits/(Pixel*Frame) : 0.108
Stream size : 2.31 GiB (91%)
Writing library : x264 core 112
Encoding settings : cabac=1 / ref=3 / deblock=1:0:0 / analyse=0x3:0x113 /

me=hex / subme=7 / psy=1 / psy_rd=1.00:0.00 / mixed_ref=1 / me_range=16 / chroma_me=1 /

trellis=1 / 8x8dct=1 / cqm=0 / deadzone=21,11 / fast_pskip=1 / chroma_qp_offset=-2 /

threads=6 / sliced_threads=0 / nr=0 / decimate=1 / interlaced=0 / constrained_intra=0 /

bframes=3 / b_pyramid=2 / b_adapt=1 / b_bias=0 / direct=1 / weightb=1 / open_gop=0 /

weightp=2 / keyint=300 / keyint_min=29 / scenecut=40 / intra_refresh=0 / rc_lookahead=40 /

rc=2pass / mbtree=1 / bitrate=3039 / ratetol=1.0 / qcomp=0.60 / qpmin=3 / qpmax=51 /

qpstep=4 / cplxblur=20.0 / qblur=0.5 / ip_ratio=1.40 / aq=1:1.00
Color primaries : BT.709-5, BT.1361, IEC 61966-2-4, SMPTE RP177
Transfer characteristics : BT.709-5, BT.1361
Matrix coefficients : BT.709-5, BT.1361, IEC 61966-2-4 709, SMPTE RP177

Audio
ID : 2
Format : AC-3
Format/Info : Audio Coding 3
Codec ID : A_AC3
Duration : 1h 51mn
Bit rate mode : Constant
Bit rate : 224 Kbps
Channel(s) : 2 channels
Channel positions : L R
Sampling rate : 48.0 KHz
Stream size : 178 MiB (7%)

Discussion

Comments 0

Post Your Comment

Files in this torrent

FILENAMESIZE
Downton_Abbey_(Masterpiece_Classic)_S02_E06_720p.HDTV.x264_TTL.mkv2.5 GB
Downton_Abbey_(Masterpiece_Classic)_S02_E06_720p.HDTV.x264_TTL.txt2.7 KB
Masterpiece_Classic_(Credits)_720p.HDTV.x264_TTL.mkv19.5 MB
Masterpiece_Classic_(Next Time)_720p.HDTV.x264_TTL.mkv10.8 MB
Masterpiece_Classic_(Prieviously)_720p.HDTV.x264_TTL-1.mkv16.2 MB

Alternative Torrents for 'DowntonAbbeyMasterpieceClassicSEp xTTL'.

There are no alternative torrents found.