The_Mystery_Of_Edwin_Drood_(Masterpiece_Classic)_720p X264_TTL

Torrent Details

The_Mystery_Of_Edwin_Drood_(Masterpiece_Classic)_720p x264_TTLThe_Mystery_Of_Edwin_Drood_(Masterpiece_Classic)_720p x264_TTL

NAME
The_Mystery_Of_Edwin_Drood_(Masterpiece_Classic)_720p x264_TTL.torrent
CATEGORY
Television
INFOHASH
0f32bbfc4bbc987421ade466423d440b708f625d
SIZE
2.4 GB in 6 files
ADDED
Uploaded on 30-09-2013 by our crawler pet called "Spidey".
SWARM
0 seeders & 0 peers
RATING
No votes yet.

Please login to vote for this torrent.


Description

This is from the US PBS broadcast from 4-15-2012.












Enjoy and please share.





TTLTTLTTLTTLTTLTTLTTLTTLTTLTTLTTLTTLTTLTTLTTLTTLTTLTTLTTL







The_Mystery_Of_Edwin_Drood_(Masterpiece_Classic)_720p.x264_TTL.mkv
Format : Matroska
File size : 2.37 GiB
Duration : 1h 50mn
Overall bit rate : 3 076 Kbps
Writing application : HandBrake 0.9.5
Writing library : libmkv 0.6.4.1

Video
ID : 1
Format : AVC
Format/Info : Advanced Video Codec
Format profile : [email protected]
Format settings, CABAC : Yes
Format settings, ReFrames : 4 frames
Muxing mode : Container [email protected]
Codec ID : V_MPEG4/ISO/AVC
Duration : 1h 50mn
Bit rate : 2 791 Kbps
Nominal bit rate : 2 846 Kbps
Width : 1 280 pixels
Height : 720 pixels
Display aspect ratio : 16:9
Frame rate mode : Variable
Frame rate : 29.970 fps
Resolution : 8 bits
Colorimetry : 4:2:0
Scan type : Progressive
Bits/(Pixel*Frame) : 0.101
Stream size : 2.14 GiB (91%)
Writing library : x264 core 112

Audio
ID : 2
Format : AC-3
Format/Info : Audio Coding 3
Codec ID : A_AC3
Duration : 1h 50mn
Bit rate mode : Constant
Bit rate : 224 Kbps
Channel(s) : 2 channels
Channel positions : L R
Sampling rate : 48.0 KHz
Stream size : 176 MiB (7%)

Discussion

Comments 0

Post Your Comment

Files in this torrent

FILENAMESIZE
Masterpiece_Classic_(Credits)_720p.x264_TTL.mkv20.9 MB
Masterpiece_Classic_(Next Time)_720p.x264_TTL.mkv11.3 MB
Masterpiece_Classic_(Prologue)_720p.x264_TTL.mkv20.7 MB
Masterpiece_Classic_(Tonight)_720p.x264_TTL-1.mkv14.4 MB
The_Mystery_Of_Edwin_Drood_(Masterpiece_Classic)_720p.x264_TTL.mkv2.4 GB
The_Mystery_Of_Edwin_Drood_(Masterpiece_Classic)_720p.x264_TTL.txt1.8 KB

Alternative Torrents for 'TheMysteryOfEdwinDroodMasterpieceClassicp xTTL'.

There are no alternative torrents found.