Last Week Tonight With John Oliver S07E23 WEBRip X264-ION10

Torrent Details

Last Week Tonight with John Oliver S07E23 WEBRip x264<span style=color:#fc9c6d>-ION10</span>
Last Week Tonight with John Oliver S07E23 WEBRip x264<span style=color:#fc9c6d>-ION10</span>

NAME
Last Week Tonight with John Oliver S07E23 WEBRip x264-ION10.torrent
CATEGORY
Television
INFOHASH
a80d8ef21c6a00c88c0ec847e2db26d9e1365946
SIZE
290 MB in 4 files
ADDED
Uploaded on 03-09-2020 by our crawler pet called "Spidey".
SWARM
0 seeders & 0 peers
RATING
No votes yet.

Please login to vote for this torrent.


Description

Video
ID : 1
Format : AVC
Format/Info : Advanced Video Codec
Format profile : [email protected]
Format settings : CABAC / 5 Ref Frames
Format settings, CABAC : Yes
Format settings, Reference frames : 5 frames
Codec ID : avc1
Codec ID/Info : Advanced Video Coding
Duration : 29 min 37 s
Bit rate : 1 100 kb/s
Width : 720 pixels
Height : 400 pixels
Display aspect ratio : 16:9
Frame rate mode : Constant
Frame rate : 29.970 (30000/1001) FPS
Color space : YUV
Chroma subsampling : 4:2:0
Bit depth : 8 bits
Scan type : Progressive
Bits/(Pixel*Frame) : 0.127
Stream size : 234 MiB (81%)
Title : RARBG - Last.Week.Tonight.with.John.Oliver.S07E23.WEBRip.x264-ION10
Writing library : x264 core 152 r2851M ba24899
Encoding settings : cabac=1 / ref=5 / deblock=1:-1:-1 / analyse=0x3:0x113 / me=umh / subme=9 / psy=1 / psy_rd=1.00:0.15 / mixed_ref=1 / me_range=16 / chroma_me=1 / trellis=2 / 8x8dct=1 / cqm=0 / deadzone=21,11 / fast_pskip=1 / chroma_qp_offset=-3 / threads=12 / lookahead_threads=1 / sliced_threads=0 / nr=0 / decimate=1 / interlaced=0 / bluray_compat=0 / constrained_intra=0 / bframes=3 / b_pyramid=2 / b_adapt=2 / b_bias=0 / direct=3 / weightb=1 / open_gop=0 / weightp=2 / keyint=250 / keyint_min=25 / scenecut=40 / intra_refresh=0 / rc_lookahead=50 / rc=abr / mbtree=1 / bitrate=1100 / ratetol=1.0 / qcomp=0.60 / qpmin=0 / qpmax=69 / qpstep=4 / ip_ratio=1.40 / aq=1:1.00
Encoded date : UTC 2020-08-31 04:33:17
Tagged date : UTC 2020-08-31 04:33:17
Codec configuration box : avcC

Audio
ID : 2
Format : AAC LC
Format/Info : Advanced Audio Codec Low Complexity
Codec ID : mp4a-40-2
Duration : 29 min 37 s
Bit rate mode : Constant
Bit rate : 256 kb/s
Channel(s) : 2 channels
Channel layout : L R
Sampling rate : 48.0 kHz
Frame rate : 46.875 FPS (1024 SPF)
Compression mode : Lossy
Stream size : 54.2 MiB (19%)
Title : RARBG - Last.Week.Tonight.with.John.Oliver.S07E23.WEBRip.x264-ION10
Language : English
Default : Yes
Alternate group : 1
Encoded date : UTC 2020-08-31 04:33:17
Tagged date : UTC 2020-08-31 04:33:17

Discussion

Comments 0

Post Your Comment

Files in this torrent

FILENAMESIZE
Last.Week.Tonight.with.John.Oliver.S07E23.WEBRip.x264-ION10.mp4290.4 MB
RARBG.txt30 B
RARBG_DO_NOT_MIRROR.exe99 B
Subs/2_English.srt66.7 KB

Alternative Torrents for 'Last Week Tonight with John Oliver'.

TORRENT NAMEADDEDSIZESEEDSPEERSHEALTH
10/19/2020886 MB34392
10/9/20202.3 GB31411
10/19/2020897 MB1979
10/20/20202 GB17740
10/20/2020886 MB17513
10/20/2020301 MB1511
10/19/2020309 MB13512
10/19/2020309 MB1294
10/9/2020335 MB1275
10/19/2020886 MB1152
10/19/20202 GB1083
10/19/2020231 MB1035
10/9/2020992 MB777
10/19/20202.1 GB665
10/19/2020118 MB504