Last Week Tonight With John Oliver S07E23 August 30 2020 1080p HMAX WEBRip DD2.0 X264-monkee[rarbg]

Torrent Details

Last Week Tonight with John Oliver S07E23 August 30 2020 1080p HMAX WEBRip DD2.0 x264<span style=color:#fc9c6d>-monkee[rarbg]</span>
Last Week Tonight with John Oliver S07E23 August 30 2020 1080p HMAX WEBRip DD2.0 x264<span style=color:#fc9c6d>-monkee[rarbg]</span>

NAME
Last Week Tonight with John Oliver S07E23 August 30 2020 1080p HMAX WEBRip DD2.0 x264-monkee[rarbg].torrent
CATEGORY
Television
INFOHASH
c40b9cb3791f712137f35ea265c352da712f55bd
SIZE
2.4 GB in 3 files
ADDED
Uploaded on 03-09-2020 by our crawler pet called "Spidey".
SWARM
0 seeders & 0 peers
RATING
No votes yet.

Please login to vote for this torrent.


Description

Video
ID : 1
Format : AVC
Format/Info : Advanced Video Codec
Format profile : [email protected]
Format settings : CABAC / 4 Ref Frames
Format settings, CABAC : Yes
Format settings, Reference frames : 4 frames
Codec ID : V_MPEG4/ISO/AVC
Duration : 29 min 37 s
Bit rate mode : Variable
Bit rate : 11.2 Mb/s
Maximum bit rate : 12.4 Mb/s
Width : 1 920 pixels
Height : 1 080 pixels
Display aspect ratio : 16:9
Frame rate mode : Constant
Frame rate : 29.970 (29970/1000) FPS
Original frame rate : 29.970 (30000/1001) FPS
Color space : YUV
Chroma subsampling : 4:2:0
Bit depth : 8 bits
Scan type : Progressive
Bits/(Pixel*Frame) : 0.180
Stream size : 2.32 GiB (97%)
Default : Yes
Forced : No

Audio
ID : 2
Format : AC-3
Format/Info : Audio Coding 3
Commercial name : Dolby Digital
Codec ID : A_AC3
Duration : 29 min 37 s
Bit rate mode : Constant
Bit rate : 384 kb/s
Channel(s) : 2 channels
Channel layout : L R
Sampling rate : 48.0 kHz
Frame rate : 31.250 FPS (1536 SPF)
Compression mode : Lossy
Stream size : 81.4 MiB (3%)
Language : English
Service kind : Complete Main
Default : Yes
Forced : No

Text
ID : 3
Format : UTF-8
Codec ID : S_TEXT/UTF8
Codec ID/Info : UTF-8 Plain Text
Duration : 29 min 18 s
Bit rate : 128 b/s
Count of elements : 1114
Stream size : 27.5 KiB (0%)
Title : SDH
Language : English
Default : No
Forced : No

Menu
00:29:03.000 : en:Credits

Discussion

Comments 0

Post Your Comment

Files in this torrent

FILENAMESIZE
Last.Week.Tonight.with.John.Oliver.S07E23.August.30.2020.1080p.HMAX.WEB-DL.DD2.0.H.264-monkee.mkv2.4 GB
RARBG.txt30 B
RARBG_DO_NOT_MIRROR.exe99 B

Alternative Torrents for 'Last Week Tonight with John Oliver August HMAX DD'.

TORRENT NAMEADDEDSIZESEEDSPEERSHEALTH
10/22/20206.3 GB38821078
10/22/20202.7 GB843215
Yesterday807 MB51050
Yesterday1.8 GB502125
Yesterday294 MB494106
Yesterday1.8 GB46070
10/20/20202 GB44340
Yesterday807 MB40688
10/19/2020886 MB34392
Yesterday807 MB31798
10/9/20202.3 GB31411
10/13/2020730 MB28525
10/16/2020345 MB252129
Yesterday796 MB24629
10/13/20201.5 GB21316