Невероятная правда (The Unbelievable Truth) 1989 BDRip 1080p

Torrent Details

Невероятная правда (The Unbelievable Truth) 1989 BDRip 1080p
Невероятная правда (The Unbelievable Truth) 1989 BDRip 1080p

NAME
Невероятная правда (The Unbelievable Truth) 1989 BDRip 1080p.torrent
CATEGORY
Movies
INFOHASH
95d58d75b564b179f6c3194d54a5aa3d8c81cabc
SIZE
7.9 GB in 0 files
ADDED
Uploaded on 04-09-2020 by our crawler pet called "Spidey".
SWARM
0 seeders & 0 peers
RATING
No votes yet.

Please login to vote for this torrent.


Description

Название: Невероятная правда

Оригинальное название: The Unbelievable Truth

Год выхода: 1989



Страна: США

Студия: Action Features

Продолжительность: 01:30:15

Жанр: драма, мелодрама, комедия, ...



Режиссер: Хэл Хартли

В ролях: Эдриэнн Шелли, Роберт Джон Берк, Крис Кук, Джулия МакНил, Кэтрин Мейфилд, Гэри Соэр, Дэвид Хили, Мэтт Мэллой, Иди Фалко, Джеф Ховард, ...



Перевод:

- Профессиональный (двуголосый, закадровый) студия Ульпаней Эльром

- Любительский (одноголосый, закадровый) ...?



О фильме: Джош Хаттон — досрочно выпущенный заключенный. Он возвращается в свой район, ведь больше ему некуда идти. Подробности его преступления все трактуют по-разному. Его преследуют кошмары прошлого: смерть подружки, тюремный срок за убийство во время ссоры отца девушки. Хаттон в шоке и не способен начать новую жизнь. Встреча с Одри Хьюго, школьницей старших классов, многое меняет. Отец Одри, владелец гаража, нанимает Джоша как талантливого механика. Одри и Джош испытывают друг к другу взаимное влечение…











Кодек: x264

Качество: BDRip 1080p

Видео: 1920x1080, 12000 kbps, 23,976 fps

Аудио #1: AC-3, 2 ch, 192 kbps (Rus) - DVO студия Ульпаней Эльром

Аудио #2: AC-3, 2 ch, 192 kbps (Rus) - VO

Аудио #3: AC-3, 2 ch, 192 kbps (Eng)

Субтитры: нет



Дополнительная информацияЗа исходник спасибо - Гость

MediaInfo

x264 [info]: frame I:715 Avg QP:20.81 size:201536

x264 [info]: frame P:22332 Avg QP:23.79 size:105524

x264 [info]: frame B:106802 Avg QP:25.61 size: 52596

x264 [info]: consecutive B-frames: 0.9% 0.5% 1.6% 8.2% 14.7% 42.2% 17.2% 4.8% 3.2% 2.5% 1.3% 1.8% 1.0%



Общее

Уникальный идентификатор : 222885816860509619243803138339916472938 (0xA7AE3F33FDFA4A60B570313C4E03E26A)

Полное имя : Невероятная правда (The Unbelievable Truth) 1989 BDRip 1080p.mkv

Формат : Matroska

Версия формата : Version 2

Размер файла : 7,93 Гбайт

Продолжительность : 1 ч. 30 м.

Общий поток : 12,6 Мбит/сек

Дата кодирования : UTC 2016-05-31 14:31:02

Программа кодирования : mkvmerge v4.0.0 ('The Stars were mine') сборка от Jun 6 2010 16:18:42

Библиотека кодирования : libebml v1.0.0 + libmatroska v1.0.0



Видео

Идентификатор : 1

Формат : AVC

Формат/Информация : Advanced Video Codec

Профиль формата : [email protected]

Параметр CABAC формата : Да

Параметр ReFrames формата : 4 кадра

Идентификатор кодека : V_MPEG4/ISO/AVC

Продолжительность : 1 ч. 30 м.

Битрейт : 12,0 Мбит/сек

Ширина : 1920 пикселей

Высота : 1080 пикселей

Соотношение сторон : 16:9

Режим частоты кадров : Постоянный

Частота кадров : 23,976 кадра/сек

Цветовое пространство : YUV

Субдискретизация насыщенности : 4:2:0

Битовая глубина : 8 бит

Тип развёртки : Прогрессивная

Бит/(Пиксели*Кадры) : 0.241

Размер потока : 7,40 Гбайт (93%)

Библиотека кодирования : x264 core 146 r2538 121396c

Настройки программы : cabac=1 / ref=4 / deblock=1:-3:-3 / analyse=0x3:0x133 / me=umh / subme=11 / psy=1 / psy_rd=1.10:0.16 / mixed_ref=1 / me_range=32 / chroma_me=1 / trellis=2 / 8x8dct=1 / cqm=0 / deadzone=21,11 / fast_pskip=0 / chroma_qp_offset=-3 / threads=12 / lookahead_threads=2 / sliced_threads=0 / nr=0 / decimate=0 / interlaced=0 / bluray_compat=0 / constrained_intra=0 / bframes=12 / b_pyramid=2 / b_adapt=2 / b_bias=0 / direct=3 / weightb=1 / open_gop=0 / weightp=2 / keyint=240 / keyint_min=23 / scenecut=40 / intra_refresh=0 / rc_lookahead=60 / rc=2pass / mbtree=0 / bitrate=12000 / ratetol=1.0 / qcomp=0.60 / qpmin=0 / qpmax=69 / qpstep=4 / cplxblur=20.0 / qblur=0.5 / vbv_maxrate=50000 / vbv_bufsize=62500 / nal_hrd=none / filler=0 / ip_ratio=1.40 / pb_ratio=1.30 / aq=1:0.90

Язык : English

Default : Нет

Forced : Нет



Аудио #1

Идентификатор : 2

Формат : AC-3

Формат/Информация : Audio Coding 3

Расширение режима : CM (complete main)

Параметр Endianness формата : Big

Идентификатор кодека : A_AC3

Продолжительность : 1 ч. 30 м.

Вид битрейта : Постоянный

Битрейт : 192 Кбит/сек

Каналы : 2 канала

Расположение каналов : Front: L R

Частота : 48,0 КГц

Метод сжатия : С потерями

Размер потока : 124 Мбайт (2%)

Заголовок : DVO студия Ульпаней Эльром

Язык : Russian

Default : Нет

Forced : Нет



Аудио #2

Идентификатор : 3

Формат : AC-3

Формат/Информация : Audio Coding 3

Расширение режима : CM (complete main)

Параметр Endianness формата : Big

Идентификатор кодека : A_AC3

Продолжительность : 1 ч. 30 м.

Вид битрейта : Постоянный

Битрейт : 192 Кбит/сек

Каналы : 2 канала

Расположение каналов : Front: L R

Частота : 48,0 КГц

Метод сжатия : С потерями

Размер потока : 124 Мбайт (2%)

Заголовок : VO

Язык : Russian

Default : Нет

Forced : Нет



Аудио #3

Идентификатор : 4

Формат : AC-3

Формат/Информация : Audio Coding 3

Расширение режима : CM (complete main)

Параметр Endianness формата : Big

Идентификатор кодека : A_AC3

Продолжительность : 1 ч. 30 м.

Вид битрейта : Постоянный

Битрейт : 192 Кбит/сек

Каналы : 2 канала

Расположение каналов : Front: L R

Частота : 48,0 КГц

Метод сжатия : С потерями

Размер потока : 124 Мбайт (2%)

Язык : English

Default : Нет

Forced : Нет





Discussion

Comments 0

Post Your Comment

Torrent Files (Unavailable)

Please check back later to get a list of all files included in this torrent.

Alternative Torrents for 'Невероятная правда Unbelievable Truth'.

TORRENT NAMEADDEDSIZESEEDSPEERSHEALTH
9/4/20207.9 GB00