Brave New World - Season 1 (2020) WEBRip-AVC [Ukr Eng] [Цікава Ідея]

Torrent Details

Brave New World - Season 1 (2020) WEBRip-AVC [Ukr Eng] [Цікава Ідея]
Brave New World - Season 1 (2020) WEBRip-AVC [Ukr Eng] [Цікава Ідея]

NAME
Brave New World - Season 1 (2020) WEBRip-AVC [Ukr Eng] [Цікава Ідея].torrent
CATEGORY
Movies
INFOHASH
addaa0a4f8072b1623f9434e89b5d3be5755daf3
SIZE
5.1 GB in 0 files
ADDED
Uploaded on 04-09-2020 by our crawler pet called "Spidey".
SWARM
0 seeders & 0 peers
RATING
No votes yet.

Please login to vote for this torrent.


Description

Информация о фильме

Название: Дивный новый мир

Оригинальное название: Brave New World

Год выхода: 2020

Жанр: Фантастика, драма





Режиссер: Оуэн Харрис, Иифе Макардл, Андрий Парекх





В ролях: Олден Эренрайк, Джессика Браун-Финдли, Гарри Ллойд, Нина Сосанья, Джозеф Морган, Кайли Банбери, Сэн Мицудзи, Ханна Джон-Кэймен, Софи Макинтош, Мэттью Обри и др.





О фильме:

XXVI век, идеальный мир будущего. Здесь всё принадлежат всем, потребление возведено в культ, люди рождаются в инкубаторах и умирают без болезней и старости — а главное, каждый чувствует себя на вершине блаженства благодаря специальной таблетке. Синтетическую гармонию нарушает необычный человек извне, и перед жителями дивного нового мира встает опасный вопрос - верный ли путь к счастью они выбрали.











Страна: США

Продолжительность: ~00:48:27 серия

Перевод: Профессиональный (многоголосый, закадровый) (Цікава Ідея / Украинский)





Файл

Кодек: x.264

Качество: WEBRip-AVC

Видео: AVC, 720x360, 23.976 fps, 1048 kb/s

Аудио 1: AC3, 48.0 kHz, 6 ch, 448 kb/s | UKR

Аудио 2: E-AC3, 48.0 kHz, 6 ch, 192 kb/s | ENG

Субтитры: Отсутствуют





MIFormat : Matroska

Format version : Version 4

File size : 597 MiB

Duration : 48 min 27 s

Overall bit rate : 1 722 kb/s

Movie name : Прекрасний новий світ / Brave New World - S01E01 (2020) WEBRip-AVC [Ukr.Eng] [Цікава Ідея]

Encoded date : UTC 2020-09-03 14:02:11

Writing application : mkvmerge v6.8.0 ('Theme for Great Cities') 32bit built on Mar 2 2014 21:27:07

Writing library : libebml v1.3.0 + libmatroska v1.4.1

Cover : Yes

Attachments : cover.jpg



Video

ID : 1

Format : AVC

Format/Info : Advanced Video Codec

Format profile : [email protected]

Format settings : CABAC / 5 Ref Frames

Format settings, CABAC : Yes

Format settings, Reference : 5 frames

Codec ID : V_MPEG4/ISO/AVC

Duration : 48 min 27 s

Bit rate : 1 048 kb/s

Nominal bit rate : 1 100 kb/s

Width : 720 pixels

Height : 360 pixels

Display aspect ratio : 2.000

Frame rate mode : Constant

Frame rate : 23.976 (24000/1001) FPS

Color space : YUV

Chroma subsampling : 4:2:0

Bit depth : 8 bits

Scan type : Progressive

Bits/(Pixel*Frame) : 0.169

Stream size : 363 MiB (61%)

Writing library : x264 core 148 r2795M aaa9aa8

Encoding settings : cabac=1 / ref=5 / deblock=1:-1:-1 / analyse=0x3:0x113 / me=umh / subme=9 / psy=1 / psy_rd=1.00:0.15 / mixed_ref=1 / me_range=16 / chroma_me=1 / trellis=2 / 8x8dct=1 / cqm=0 / deadzone=21,11 / fast_pskip=1 / chroma_qp_offset=-3 / threads=24 / lookahead_threads=2 / sliced_threads=0 / nr=0 / decimate=1 / interlaced=0 / bluray_compat=0 / constrained_intra=0 / bframes=3 / b_pyramid=2 / b_adapt=2 / b_bias=0 / direct=3 / weightb=1 / open_gop=0 / weightp=2 / keyint=250 / keyint_min=23 / scenecut=40 / intra_refresh=0 / rc_lookahead=50 / rc=abr / mbtree=1 / bitrate=1100 / ratetol=1.0 / qcomp=0.60 / qpmin=0 / qpmax=69 / qpstep=4 / ip_ratio=1.40 / aq=1:1.00

Default : Yes

Forced : No



Audio #1

ID : 2

Format : AC-3

Format/Info : Audio Coding 3

Commercial name : Dolby Digital

Codec ID : A_AC3

Duration : 48 min 27 s

Bit rate mode : Constant

Bit rate : 448 kb/s

Channel(s) : 6 channels

Channel layout : L R C LFE Ls Rs

Sampling rate : 48.0 kHz

Frame rate : 31.250 FPS (1536 SPF)

Bit depth : 16 bits

Compression mode : Lossy

Stream size : 155 MiB (26%)

Title : Цікава Ідея

Language : Ukrainian

Service kind : Complete Main

Default : Yes

Forced : No



Audio #2

ID : 3

Format : E-AC-3

Format/Info : Enhanced AC-3

Commercial name : Dolby Digital Plus

Codec ID : A_EAC3

Duration : 48 min 27 s

Bit rate mode : Constant

Bit rate : 192 kb/s

Channel(s) : 6 channels

Channel layout : L R C LFE Ls Rs

Sampling rate : 48.0 kHz

Frame rate : 31.250 FPS (1536 SPF)

Compression mode : Lossy

Delay relative to video : 24 ms

Stream size : 66.5 MiB (11%)

Title : Original

Language : English

Service kind : Complete Main

Default : No

Forced : NoСкриншоты

Discussion

Comments 0

Post Your Comment

Torrent Files (Unavailable)

Please check back later to get a list of all files included in this torrent.

Alternative Torrents for 'Brave World Season AVC Ukr Eng Цікава Ідея'.

TORRENT NAMEADDEDSIZESEEDSPEERSHEALTH
9/4/20205.1 GB00