Принцесса Льда (Ice Princess) 2005 WEB-DL 720p

Torrent Details

Принцесса Льда (Ice Princess) 2005 WEB-DL 720p

NAME
Принцесса Льда (Ice Princess) 2005 WEB-DL 720p.torrent
CATEGORY
Movies
INFOHASH
271ce867e30772690dc5caf6b736384f86907be3
SIZE
3.8 GB in 0 files
ADDED
Uploaded on 05-09-2020 by our crawler pet called "Spidey".
SWARM
1 seeders & 0 peers
RATING
No votes yet.

Please login to vote for this torrent.


Description

Название: Принцесса Льда

Оригинальное название: Ice Princess

Год выхода: 2005

Страна: США, Канада

Студия: Walt Disney Pictures, Bridget Johnson Films, Skate Away Productions

Продолжительность: 01:38:32

Жанр: драма, комедия, семейный, спорт



Режиссер: Тим Файвелл

В ролях: Мишель Трахтенберг, Джоан Кьюсак, Эми Стюарт, Стив Росс, Хайден Панеттьери, Ким Кэтролл, Тревор Блумас, Керстен Олсон, Жослин Лаи, Конни Рэй, ...



Перевод:

- Профессиональный (многоголосый, закадровый) Видеосервис

- Профессиональный (многоголосый, закадровый) ОРТ

- Профессиональный (многоголосый, закадровый) СТС

- Профессиональный (многоголосый, закадровый) НТВ

- Профессиональный (двухголосый, закадровый) ТВ1000

- Субтитры



О фильме: Когда-то Тина Харвуд была чемпионкой по фигурному катанию, но ее звезда давно закатилась. Теперь она тренирует свою дочь Джен, лелея надежду, что той удастся воплотить в жизнь дерзкие спортивные мечты, которые не смогла осуществить сама.

Но вскоре становится ясно: обладает задатками великой фигуристки не Джен, а другая ее подопечная — тихая школьная отличница Кэйси Карлайл. Хватит ли у Тины духа пойти против материнского инстинкта и начать продвигать к пьедесталу почета чужую ей девушку?

И хватит ли отваги у Кэйси, чтобы пойти против воли матери, понукающей дочь поступать в Гарвард, и вступить в борьбу за корону Принцессы льда?…







Кодек: MPEG4/ISO/AVC

Качество: WEB-DL 720p

Видео: 1280x718, 4033 kbps, 23,976 fps

Аудио #1: AC-3, 2 ch, 192 kbps (Rus) - MVO Видеосервис

Аудио #2: AC-3, 2 ch, 192 kbps (Rus) - MVO ОРТ

Аудио #3: AC-3, 2 ch, 192 kbps (Rus) - MVO СТС

Аудио #4: AC-3, 2 ch, 256 kbps (Rus) - MVO НТВ

Аудио #5: AC-3, 2 ch, 192 kbps (Rus) - DVO ТВ1000

Аудио #6: AC-3, 6 ch, 384 kbps (Eng)

Субтитры: Русские, Английские



MediaInfoОбщее

Уникальный идентификатор : 201178346483528118948614472544738746905 (0x97598A48492A07D18F651226DD722219)

Полное имя : Принцесса Льда (Ice Princess) 2005 WEB-DL 720p.mkv

Формат : Matroska

Версия формата : Version 2

Размер файла : 3,82 Гбайт

Продолжительность : 1 ч. 38 м.

Общий поток : 5551 Кбит/сек

Дата кодирования : UTC 2017-01-15 01:14:29

Программа кодирования : mkvmerge v4.0.0 ('The Stars were mine') сборка от Jun 6 2010 16:18:42

Библиотека кодирования : libebml v1.0.0 + libmatroska v1.0.0



Видео

Идентификатор : 1

Формат : AVC

Формат/Информация : Advanced Video Codec

Профиль формата : [email protected]

Параметр CABAC формата : Нет

Параметр ReFrames формата : 2 кадра

Параметр GOP формата : M=2, N=73

Идентификатор кодека : V_MPEG4/ISO/AVC

Продолжительность : 1 ч. 38 м.

Битрейт : 4033 Кбит/сек

Ширина : 1280 пикселей

Высота : 718 пикселей

Соотношение сторон : 16:9

Режим частоты кадров : Постоянный

Частота кадров : 23,976 кадра/сек

Цветовое пространство : YUV

Субдискретизация насыщенности : 4:2:0

Битовая глубина : 8 бит

Тип развёртки : Прогрессивная

Бит/(Пиксели*Кадры) : 0.183

Размер потока : 2,78 Гбайт (73%)

Язык : English

Default : Нет

Forced : Нет

Основные цвета : BT.709

Характеристики трансфера : BT.709

Коэффициенты матрицы : BT.709



Аудио #1

Идентификатор : 2

Формат : AC-3

Формат/Информация : Audio Coding 3

Расширение режима : CM (complete main)

Параметр Endianness формата : Big

Идентификатор кодека : A_AC3

Продолжительность : 1 ч. 38 м.

Вид битрейта : Постоянный

Битрейт : 192 Кбит/сек

Каналы : 2 канала

Расположение каналов : Front: L R

Частота : 48,0 КГц

Битовая глубина : 16 бит

Метод сжатия : С потерями

Размер потока : 135 Мбайт (3%)

Заголовок : MVO Видеосервис

Язык : Russian

Default : Нет

Forced : Нет



Аудио #2

Идентификатор : 3

Формат : AC-3

Формат/Информация : Audio Coding 3

Расширение режима : CM (complete main)

Параметр Endianness формата : Big

Идентификатор кодека : A_AC3

Продолжительность : 1 ч. 38 м.

Вид битрейта : Постоянный

Битрейт : 192 Кбит/сек

Каналы : 2 канала

Расположение каналов : Front: L R

Частота : 48,0 КГц

Битовая глубина : 16 бит

Метод сжатия : С потерями

Размер потока : 135 Мбайт (3%)

Заголовок : MVO ОРТ

Язык : Russian

Default : Нет

Forced : Нет



Аудио #3

Идентификатор : 4

Формат : AC-3

Формат/Информация : Audio Coding 3

Расширение режима : CM (complete main)

Параметр Endianness формата : Big

Идентификатор кодека : A_AC3

Продолжительность : 1 ч. 38 м.

Вид битрейта : Постоянный

Битрейт : 192 Кбит/сек

Каналы : 2 канала

Расположение каналов : Front: L R

Частота : 48,0 КГц

Битовая глубина : 16 бит

Метод сжатия : С потерями

Размер потока : 135 Мбайт (3%)

Заголовок : MVO СТС

Язык : Russian

Default : Нет

Forced : Нет



Аудио #4

Идентификатор : 5

Формат : AC-3

Формат/Информация : Audio Coding 3

Расширение режима : CM (complete main)

Параметр Endianness формата : Big

Идентификатор кодека : A_AC3

Продолжительность : 1 ч. 38 м.

Вид битрейта : Постоянный

Битрейт : 256 Кбит/сек

Каналы : 2 канала

Расположение каналов : Front: L R

Частота : 48,0 КГц

Битовая глубина : 16 бит

Метод сжатия : С потерями

Размер потока : 180 Мбайт (5%)

Заголовок : MVO НТВ

Язык : Russian

Default : Нет

Forced : Нет



Аудио #5

Идентификатор : 6

Формат : AC-3

Формат/Информация : Audio Coding 3

Расширение режима : CM (complete main)

Параметр Endianness формата : Big

Идентификатор кодека : A_AC3

Продолжительность : 1 ч. 38 м.

Вид битрейта : Постоянный

Битрейт : 192 Кбит/сек

Каналы : 2 канала

Расположение каналов : Front: L R

Частота : 48,0 КГц

Битовая глубина : 16 бит

Метод сжатия : С потерями

Размер потока : 135 Мбайт (3%)

Заголовок : DVO ТВ1000

Язык : Russian

Default : Нет

Forced : Нет



Аудио #6

Идентификатор : 7

Формат : AC-3

Формат/Информация : Audio Coding 3

Расширение режима : CM (complete main)

Параметр Endianness формата : Big

Идентификатор кодека : A_AC3

Продолжительность : 1 ч. 38 м.

Вид битрейта : Постоянный

Битрейт : 384 Кбит/сек

Каналы : 6 каналов

Расположение каналов : Front: L C R, Side: L R, LFE

Частота : 48,0 КГц

Битовая глубина : 16 бит

Метод сжатия : С потерями

Размер потока : 271 Мбайт (7%)

Язык : English

Default : Нет

Forced : Нет



Текст #1

Идентификатор : 8

Формат : UTF-8

Идентификатор кодека : S_TEXT/UTF8

Идентификатор кодека/Информация : UTF-8 Plain Text

Язык : Russian

Default : Нет

Forced : Нет



Текст #2

Идентификатор : 9

Формат : UTF-8

Идентификатор кодека : S_TEXT/UTF8

Идентификатор кодека/Информация : UTF-8 Plain Text

Язык : English

Default : Нет

Forced : Нет





Discussion

Comments 0

Post Your Comment

Torrent Files (Unavailable)

Please check back later to get a list of all files included in this torrent.

Alternative Torrents for 'Принцесса Льда Ice Princess'.

TORRENT NAMEADDEDSIZESEEDSPEERSHEALTH
9/5/20203.8 GB10