Birdsong_S01_E02_Masterpiece_Classic_720p HDTV X264_TTL

Torrent Details

Birdsong_S01_E02_Masterpiece_Classic_720p HDTV x264_TTLBirdsong_S01_E02_Masterpiece_Classic_720p HDTV x264_TTL

NAME
Birdsong_S01_E02_Masterpiece_Classic_720p HDTV x264_TTL.torrent
CATEGORY
Television
INFOHASH
6f595cf92f925ca9c51de737d8e6c591843ad4ff
SIZE
1.7 GB in 5 files
ADDED
Uploaded on 13-10-2013 by our crawler pet called "Spidey".
SWARM
0 seeders & 0 peers
RATING
No votes yet.

Please login to vote for this torrent.


Description

This is from the US PBS broadcast from 4-29-2012. Part two. See info file in torrent. Enjoy and please share. TTLTTLTTLTTLTTLTTLTTLTTLTTLTTLTTLTTLTTLTTLTTLTTLTTLTTLTTL Birdsong_S01_E02_Masterpiece_Classic_720p.HDTV.x264_TTL.mkv
Format : Matroska
File size : 1.63 GiB
Duration : 1h 19mn
Overall bit rate : 2 928 Kbps
Writing application : HandBrake 0.9.5
Writing library : libmkv 0.6.4.1

Video
ID : 1
Format : AVC
Format/Info : Advanced Video Codec
Format profile : [email protected]
Format settings, CABAC : Yes
Format settings, ReFrames : 4 frames
Muxing mode : Container [email protected]
Codec ID : V_MPEG4/ISO/AVC
Duration : 1h 19mn
Bit rate : 2 698 Kbps
Width : 1 280 pixels
Height : 720 pixels
Display aspect ratio : 16:9
Frame rate mode : Variable
Frame rate : 29.970 fps
Color space : YUV
Chroma subsampling : 4:2:0
Bit depth : 8 bits
Scan type : Progressive
Bits/(Pixel*Frame) : 0.098
Stream size : 1.48 GiB (90%)
Writing library : x264 core 112


Audio
ID : 2
Format : AC-3
Format/Info : Audio Coding 3
Mode extension : CM (complete main)
Codec ID : A_AC3
Duration : 1h 19mn
Bit rate mode : Constant
Bit rate : 224 Kbps
Channel(s) : 2 channels
Channel positions : Front: L R
Sampling rate : 48.0 KHz
Stream size : 128 MiB (8%)

Discussion

Comments 0

Post Your Comment

Files in this torrent

FILENAMESIZE
Birdsong-info.txt5.5 KB
Birdsong_S01_E02_Masterpiece_Classic_720p.HDTV.x264_TTL.mkv1.6 GB
Birdsong_S01_E02_Masterpiece_Classic_720p.HDTV.x264_TTL.txt1.9 KB
Masterpiece_Classic_(Credits)_720p.HDTV.x264_TTL.mkv21.5 MB
Masterpiece_Classic_(Previously)_720p.HDTV.x264_TTL.mkv41.1 MB

Alternative Torrents for 'BirdsongSEMasterpieceClassicp xTTL'.

There are no alternative torrents found.