Yellowstone 2018 S02E01 A Thundering 1080p BDMux ITA ENG X264-BlackBit

Torrent Details


Yellowstone 2018 S02E01 A Thundering 1080p BDMux ITA ENG x264-BlackBit

NAME
Yellowstone 2018 S02E01 A Thundering 1080p BDMux ITA ENG x264-BlackBit.torrent
CATEGORY
Television
INFOHASH
71cbf5b9f2b7d600bf15296c5c245379bc87483c
SIZE
3.4 GB in 1 file
ADDED
Uploaded on 06-09-2020 by our crawler pet called "Spidey".
SWARM
0 seeders & 0 peers
RATING
No votes yet.

Please login to vote for this torrent.


Description

[font=georgia][size=36pt]Yellowstone - Stagione 2[/size][/font]




[font=courier]Paese Stati Uniti d'America
Anno 2018 – in produzione
Formato serie TV
Genere western, drammatico
Stagioni 3
Episodi 29
Durata 42-92 min (episodio)
Lingua originale inglese
Rapporto 2,00:1[/font]


[font=courier]I costruttori di terreni, una riserva indiana e il primo parco nazionale americano minacciano il più grande ranch contiguo degli Stati Uniti.[/font]


[spoiler][/spoiler]


[spoiler]
General
Unique ID : 167776516596107901843606041939872557446 (0x7E3894EC1BFDBF78BF2DCDF71B83A986)
Complete name : C:UsersAdministratorVideosYellowstone S02Yellowstone.2018.S02E01.A.Thundering.1080p.BDMux.ITA.ENG.x264-BlackBit.mkv
Format : Matroska
Format version : Version 4
File size : 3.40 GiB
Duration : 46 min 55 s
Overall bit rate : 10.4 Mb/s
Encoded date : UTC 2020-08-29 07:36:36
Writing application : mkvmerge v48.0.0 ('Fortress Around Your Heart') 64-bit
Writing library : libebml v1.4.0 + libmatroska v1.6.0

Video
ID : 1
Format : AVC
Format/Info : Advanced Video Codec
Format profile : [email protected]
Format settings : CABAC / 4 Ref Frames
Format settings, CABAC : Yes
Format settings, Reference : 4 frames
Codec ID : V_MPEG4/ISO/AVC
Duration : 46 min 55 s
Bit rate : 9 355 kb/s
Width : 1 920 pixels
Height : 960 pixels
Display aspect ratio : 2.000
Frame rate mode : Constant
Frame rate : 23.976 (24000/1001) FPS
Color space : YUV
Chroma subsampling : 4:2:0
Bit depth : 8 bits
Scan type : Progressive
Bits/(Pixel*Frame) : 0.212
Stream size : 3.07 GiB (90%)
Writing library : x264 core 158 r2984 3759fcb
Encoding settings : cabac=1 / ref=4 / deblock=1:-3:-3 / analyse=0x3:0x113 / me=umh / subme=8 / psy=1 / psy_rd=1.00:0.00 / mixed_ref=1 / me_range=16 / chroma_me=1 / trellis=1 / 8x8dct=1 / cqm=0 / deadzone=21,11 / fast_pskip=1 / chroma_qp_offset=-2 / threads=30 / lookahead_threads=5 / sliced_threads=0 / nr=0 / decimate=1 / interlaced=0 / bluray_compat=0 / constrained_intra=0 / bframes=3 / b_pyramid=2 / b_adapt=1 / b_bias=0 / direct=3 / weightb=1 / open_gop=0 / weightp=2 / keyint=250 / keyint_min=23 / scenecut=40 / intra_refresh=0 / rc_lookahead=50 / rc=2pass / mbtree=1 / bitrate=9355 / ratetol=1.0 / qcomp=0.60 / qpmin=0 / qpmax=69 / qpstep=4 / cplxblur=20.0 / qblur=0.5 / ip_ratio=1.40 / aq=1:1.00
Language : English
Default : Yes
Forced : Yes

Audio #1
ID : 2
Format : AC-3
Format/Info : Audio Coding 3
Commercial name : Dolby Digital
Codec ID : A_AC3
Duration : 46 min 55 s
Bit rate mode : Constant
Bit rate : 384 kb/s
Channel(s) : 2 channels
Channel layout : L R
Sampling rate : 48.0 kHz
Frame rate : 31.250 FPS (1536 SPF)
Compression mode : Lossy
Stream size : 129 MiB (4%)
Language : Italian
Service kind : Complete Main
Default : Yes
Forced : Yes

Audio #2
ID : 3
Format : AC-3
Format/Info : Audio Coding 3
Commercial name : Dolby Digital
Codec ID : A_AC3
Duration : 46 min 55 s
Bit rate mode : Constant
Bit rate : 640 kb/s
Channel(s) : 6 channels
Channel layout : L R C LFE Ls Rs
Sampling rate : 48.0 kHz
Frame rate : 31.250 FPS (1536 SPF)
Compression mode : Lossy
Stream size : 215 MiB (6%)
Language : English
Service kind : Complete Main
Default : No
Forced : No

Text
ID : 4
Format : UTF-8
Codec ID : S_TEXT/UTF8
Codec ID/Info : UTF-8 Plain Text
Duration : 45 min 14 s
Bit rate : 61 b/s
Count of elements : 641
Stream size : 20.4 KiB (0%)
Language : Italian
Default : No
Forced : No

Menu
00:00:00.000 : en:00:00:00.000
00:04:47.913 : en:00:04:47.913
00:12:11.689 : en:00:12:11.689
00:18:25.938 : en:00:18:25.938
00:28:26.371 : en:00:28:26.371
00:38:27.138 : en:00:38:27.138
00:46:14.522 : en:00:46:14.522[/spoiler]

Discussion

Comments 0

Post Your Comment

Files in this torrent

FILENAMESIZE
Yellowstone.2018.S02E01.A.Thundering.1080p.BDMux.ITA.ENG.x264-BlackBit.mkv3.4 GB

Alternative Torrents for 'Yellowstone Thundering BDMux ENG BlackBit'.

TORRENT NAMEADDEDSIZESEEDSPEERSHEALTH
9/6/20203.4 GB00