Silence And Darkness 2020 HDRip XviD AC3-EVO

Torrent Details

 Silence and Darkness 2020 HDRip XviD AC3<span style=color:#fc9c6d>-EVO</span>

NAME
Silence and Darkness 2020 HDRip XviD AC3-EVO.torrent
CATEGORY
Movies
INFOHASH
e2f30e77fcc4f5928eda70344b0149800cb408f8
SIZE
1.3 GB in 2 files
ADDED
Uploaded on 08-09-2020 by our crawler pet called "Spidey".
SWARM
0 seeders & 0 peers
RATING
No votes yet.

Please login to vote for this torrent.


Description

Tenet.2020.HC.HDTC.XviD.B4ND1T69

Director: Christopher Nolan
Writer: Christopher Nolan
Stars: John David Washington, Robert Pattinson, Elizabeth Debicki

Plot/Story:
Armed with only one word, Tenet, and fighting for the survival of the entire world, a Protagonist journeys through a twilight world of international espionage on a mission that will unfold in something beyond real time.

Notes:
Clean Print, NO Ads, Logo's, site addy's or floaty shit...just the movie.
Ran some filters to clean up the image, reduced the flicker, re-balanced the colors, brightness, contrast, gamma and sharpened the image...Samples included, Enjoy :@)

General
Complete name : Tenet.2020.HC.HDTC.XviD.B4ND1T69.avi
Format : AVI
Format/Info : Audio Video Interleave
File size : 1.81 GiB
Duration : 2 h 30 min
Overall bit rate : 1 724 kb/s
Samples : Yes...Included(3)
Subtitles : Hardcoded Chinese throughout + Hardcoded English for non-English parts.

Video
ID : 0
Format : MPEG-4 Visual
Format profile : Advanced [email protected]
Format settings, BVOP : 2
Format settings, QPel : No
Format settings, GMC : No warppoints
Format settings, Matrix : Default (H.263)
Codec ID : XVID
Codec ID/Hint : XviD
Duration : 2 h 30 min
Bit rate : 1 582 kb/s
Width : 720 pixels
Height : 336 pixels
Display aspect ratio : 2.143
Frame rate : 30.303 FPS
Color space : YUV
Chroma subsampling : 4:2:0
Bit depth : 8 bits
Scan type : Progressive
Compression mode : Lossy
Bits/(Pixel*Frame) : 0.216
Stream size : 1.66 GiB (92%)
Writing library : XviD 64

Audio
ID : 1
Format : MPEG Audio
Format version : Version 1
Format profile : Layer 3
Codec ID : 55
Codec ID/Hint : MP3
Duration : 2 h 30 min
Bit rate mode : Constant
Bit rate : 128 kb/s
Channel(s) : 2 channels
Sampling rate : 48.0 kHz
Compression mode : Lossy
Stream size : 137 MiB (7%)
Alignment : Aligned on interleaves
Interleave, duration : 24 ms (0.73 video frame)

Screenshots:
https://i.ibb.co/LJFzncr/Tenet-HDTC-3.png
https://i.ibb.co/vczGhLd/Tenet-HDTC-4.png
https://i.ibb.co/JCGkYY3/Tenet-HDTC-5.png
https://i.ibb.co/7V59wdq/Tenet-HDTC-6.png
https://i.ibb.co/sRG8JFd/Tenet-HDTC-7.png
https://i.ibb.co/Kw0rGwf/Tenet-HDTC-8.png
https://i.ibb.co/3c3yZgD/Tenet-HDTC-10.png
https://i.ibb.co/my3Xh5d/Tenet-HDTC-11.png
https://i.ibb.co/xXJbQSP/Tenet-HDTC-12.png
https://i.ibb.co/M8f5NdL/Tenet-HDTC-13.png

Please Seed For As Long As Possible
Or At Least 1:1 Ratio...Thanks
Enjoy Peeps

Discussion

Comments 0

Post Your Comment

Files in this torrent

FILENAMESIZE
Silence.and.Darkness.2020.HDRip.XviD.AC3-EVO.avi1.3 GB
Silence.and.Darkness.2020.HDRip.XviD.AC3-EVO.NFO610 B

Alternative Torrents for 'Silence and Darkness'.

TORRENT NAMEADDEDSIZESEEDSPEERSHEALTH
9/24/2020917 MB00
9/24/2020856 MB00
9/22/20201.9 GB00
9/8/2020689 MB00
9/8/20201.3 GB00
9/8/20202.6 GB00
9/8/20201.3 GB00
9/8/20201.3 GB00
9/8/20202.6 GB00
9/8/20201.3 GB00
9/7/2020460 MB00
9/7/20201.5 GB00
9/7/2020764 MB00
9/7/20202.6 GB00
9/7/2020462 MB00