Mulan 2020 ITA-ENG WEBDL 2160p HDR X265-CYBER

Torrent Details

Mulan 2020 iTA-ENG WEBDL 2160p HDR x265-CYBER
Mulan 2020 iTA-ENG WEBDL 2160p HDR x265-CYBER

NAME
Mulan 2020 iTA-ENG WEBDL 2160p HDR x265-CYBER.torrent
CATEGORY
Movies
INFOHASH
37bfca901273348f4b12ae76e35800d98e048a95
SIZE
27 GB in 1 file
ADDED
Uploaded on 09-09-2020 by our crawler pet called "Spidey".
SWARM
0 seeders & 0 peers
RATING
No votes yet.

Please login to vote for this torrent.


Description

[font=georgia][size=36pt]Mulan[/size][/font]




[font=courier]Genere: Avventura, Drammatico, Family
Anno: 2020
Regia: Niki Caro
Attori: Liu Yifei, Donnie Yen, Jason Scott Lee, Utkarsh Ambudkar, Yoson An, Ron Yuan, Tzi Ma, Rosalind Chao, Gong Li, Jet Li
Paese: USA
Durata: 120 min
Distribuzione: Walt Disney Pictures Italia[/font]


[font=courier]Hua Mulan è una intrepida giovane donna che si traveste da uomo per difendere la Cina dall'attacco di invasori provenienti dal Nord. Figlia maggiore di uno stimato guerriero, Hua Mulan è energica, determinata e agile. Quando l'Imperatore decreta che un uomo per ogni famiglia dovrà arruolarsi nell'Armata Imperiale, Mulan prende il posto del padre malato e si arruola con il nome di Hua Jun, diventando una delle più grandi guerriere nella storia della Cina.[/font]


[spoiler][/spoiler]


[spoiler]
General
Unique ID : 320159233063569383138608933580433625715 (0xF0DC6CE68CDEDF9D9E50CA4FF7D59273)
Complete name : E:Mulan.2020.iTA-ENG.WEBDL.2160p.HDR.x265-CYBER.mkv
Format : Matroska
Format version : Version 4
File size : 27.0 GiB
Duration : 1 h 55 min
Overall bit rate : 33.5 Mb/s
Encoded date : UTC 2020-09-05 21:19:00
Writing application : mkvmerge v49.0.0 ('Sick Of Losing Soulmates') 64-bit
Writing library : libebml v1.4.0 + libmatroska v1.6.1

Video
ID : 1
Format : HEVC
Format/Info : High Efficiency Video Coding
Format profile : Main [email protected]@Main
HDR format : SMPTE ST 2094 App 4, Version 1, HDR10+ Profile A compatible
Codec ID : V_MPEGH/ISO/HEVC
Duration : 1 h 55 min
Bit rate : 31.6 Mb/s
Width : 3 840 pixels
Height : 2 160 pixels
Display aspect ratio : 16:9
Frame rate mode : Constant
Frame rate : 23.976 (24000/1001) FPS
Color space : YUV
Chroma subsampling : 4:2:0
Bit depth : 10 bits
Bits/(Pixel*Frame) : 0.159
Stream size : 25.4 GiB (94%)
Title : 2160p
Language : English
Default : Yes
Forced : Yes
Color range : Full
Color primaries : BT.2020
Transfer characteristics : PQ
Matrix coefficients : BT.2020 non-constant

Audio #1
ID : 2
Format : E-AC-3
Format/Info : Enhanced AC-3
Commercial name : Dolby Digital Plus
Codec ID : A_EAC3
Duration : 1 h 55 min
Bit rate mode : Constant
Bit rate : 256 kb/s
Channel(s) : 6 channels
Channel layout : L R C LFE Ls Rs
Sampling rate : 48.0 kHz
Frame rate : 31.250 FPS (1536 SPF)
Compression mode : Lossy
Stream size : 211 MiB (1%)
Title : E-AC3 ITA
Language : Italian
Service kind : Complete Main
Default : Yes
Forced : No

Audio #2
ID : 3
Format : AC-3
Format/Info : Audio Coding 3
Commercial name : Dolby Digital
Codec ID : A_AC3
Duration : 1 h 55 min
Bit rate mode : Constant
Bit rate : 256 kb/s
Channel(s) : 6 channels
Channel layout : L R C LFE Ls Rs
Sampling rate : 48.0 kHz
Frame rate : 31.250 FPS (1536 SPF)
Compression mode : Lossy
Stream size : 211 MiB (1%)
Title : AC3 ITA
Language : Italian
Service kind : Complete Main
Default : No
Forced : No

Audio #3
ID : 4
Format : E-AC-3 JOC
Format/Info : Enhanced AC-3 with Joint Object Coding
Commercial name : Dolby Digital Plus with Dolby Atmos
Codec ID : A_EAC3
Duration : 1 h 55 min
Bit rate mode : Constant
Bit rate : 768 kb/s
Channel(s) : 6 channels
Channel layout : L R C LFE Ls Rs
Sampling rate : 48.0 kHz
Frame rate : 31.250 FPS (1536 SPF)
Compression mode : Lossy
Stream size : 633 MiB (2%)
Title : E-AC3 ENG
Language : English
Service kind : Complete Main
Default : No
Forced : No
Complexity index : 16
Number of dynamic objects : 15
Bed channel count : 1 channel
Bed channel configuration : LFE

Audio #4
ID : 5
Format : AC-3
Format/Info : Audio Coding 3
Commercial name : Dolby Digital
Codec ID : A_AC3
Duration : 1 h 55 min
Bit rate mode : Constant
Bit rate : 640 kb/s
Channel(s) : 6 channels
Channel layout : L R C LFE Ls Rs
Sampling rate : 48.0 kHz
Frame rate : 31.250 FPS (1536 SPF)
Compression mode : Lossy
Stream size : 527 MiB (2%)
Title : AC3 ENG
Language : English
Service kind : Complete Main
Default : No
Forced : No

Text #1
ID : 6
Format : UTF-8
Codec ID : S_TEXT/UTF8
Codec ID/Info : UTF-8 Plain Text
Duration : 3 min 8 s
Bit rate : 2 b/s
Count of elements : 2
Stream size : 67.0 Bytes (0%)
Title : SUB ITA Forced
Language : Italian
Default : No
Forced : Yes

Text #2
ID : 7
Format : UTF-8
Codec ID : S_TEXT/UTF8
Codec ID/Info : UTF-8 Plain Text
Duration : 1 h 54 min
Bit rate : 27 b/s
Count of elements : 784
Stream size : 23.0 KiB (0%)
Title : SUB ITA
Language : Italian
Default : No
Forced : No

Text #3
ID : 8
Format : UTF-8
Codec ID : S_TEXT/UTF8
Codec ID/Info : UTF-8 Plain Text
Duration : 1 h 50 min
Bit rate : 35 b/s
Count of elements : 1150
Stream size : 28.5 KiB (0%)
Title : SUB ENG
Language : English
Default : No
Forced : No[/spoiler]

Discussion

Comments 0

Post Your Comment

Files in this torrent

FILENAMESIZE
Mulan.2020.iTA-ENG.WEBDL.2160p.HDR.x265-CYBER.mkv27 GB

Alternative Torrents for 'Mulan ENG HDR CYBER'.

TORRENT NAMEADDEDSIZESEEDSPEERSHEALTH
9/9/202027 GB00