Two Doors Down Season 2

Torrent Details

Two Doors Down Season 2Two Doors Down Season 2

NAME
Two Doors Down Season 2.torrent
CATEGORY
Movies
INFOHASH
08737fd73e27aa42f0c15013bb1dfeaa85d641b5
SIZE
1.9 GB in 6 files
ADDED
Uploaded on 10-09-2020 by our crawler pet called "Spidey".
SWARM
0 seeders & 0 peers
RATING
No votes yet.

Please login to vote for this torrent.


Description

https://www.imdb.com/title/tt5603868



Format : MPEG-4
Format profile : Base Media
Codec ID : isom (isom/iso2/avc1/mp41)
Overall bit rate mode : Variable
Overall bit rate : 1 679 kb/s
Collection : Two Doors Down



Video
ID : 1
Format : AVC
Format/Info : Advanced Video Codec
Format profile : [email protected]
Format settings : CABAC / 4 Ref Frames
Format settings, CABAC : Yes
Format settings, Reference frames : 4 frames
Format settings, GOP : M=8, N=96
Codec ID : avc1
Codec ID/Info : Advanced Video Coding
Duration : 29 min 10 s
Bit rate : 1 579 kb/s
Width : 960 pixels
Height : 540 pixels
Display aspect ratio : 16:9
Frame rate mode : Constant
Frame rate : 25.000 FPS
Color space : YUV
Chroma subsampling : 4:2:0
Bit depth : 8 bits
Scan type : Progressive
Bits/(Pixel*Frame) : 0.122
Stream size : 329 MiB (94%)
Color range : Limited
Color primaries : BT.709
Transfer characteristics : BT.709
Matrix coefficients : BT.709
Codec configuration box : avcC

Audio
ID : 2
Format : AAC LC SBR
Format/Info : Advanced Audio Codec Low Complexity with Spectral Band Replication
Commercial name : HE-AAC
Format settings : Implicit
Codec ID : mp4a-40-2
Duration : 29 min 10 s
Bit rate mode : Variable
Bit rate : 96.0 kb/s
Maximum bit rate : 104 kb/s
Channel(s) : 2 channels
Channel layout : L R
Sampling rate : 48.0 kHz
Frame rate : 23.438 FPS (2048 SPF)
Compression mode : Lossy
Stream size : 20.0 MiB (6%)
Language : English
Default : Yes
Alternate group : 1

Discussion

Comments 0

Post Your Comment

Files in this torrent

FILENAMESIZE
S02E01 Episode 1.mp4343 MB
S02E02 Episode 2.mp4294.1 MB
S02E03 Episode 3.mp4342.3 MB
S02E04 Episode 4.mp4336.7 MB
S02E05 Episode 5.mp4341.2 MB
S02E06 Episode 6.mp4338.2 MB

Alternative Torrents for 'Two Doors Down Season'.

TORRENT NAMEADDEDSIZESEEDSPEERSHEALTH
11/6/20202 GB00
9/10/20201.9 GB00
9/7/20202 GB00
9/5/20202.7 GB00