Last Week Tonight With John Oliver (2014) S07E23 August 30 2020 (1080p HMAX Webrip X265 10bit EAC3 2.0 - ArcX)[TAoE]

Torrent Details

Last Week Tonight with John Oliver (2014) S07E23 August 30 2020 (1080p HMAX Webrip x265 10bit EAC3 2.0 - ArcX)<span style=color:#fc9c6d>[TAoE]</span>
Last Week Tonight with John Oliver (2014) S07E23 August 30 2020 (1080p HMAX Webrip x265 10bit EAC3 2.0 - ArcX)<span style=color:#fc9c6d>[TAoE]</span>

NAME
Last Week Tonight with John Oliver (2014) S07E23 August 30 2020 (1080p HMAX Webrip x265 10bit EAC3 2.0 - ArcX)[TAoE].torrent
CATEGORY
Television
INFOHASH
5d7cc8f1afd3f8272bd827e4a6e59772112db124
SIZE
525 MB in 1 file
ADDED
Uploaded on 12-09-2020 by our crawler pet called "Spidey".
SWARM
0 seeders & 0 peers
RATING
No votes yet.

Please login to vote for this torrent.


Description









Last Week Tonight with John Oliver (2014) IMDB



Note: I have used an HMAX source which yeilds a higher bitrate but monkee does not seem to upload it consistently so a switch back to AMZN will not be surprising in the future.





















Media Information



General

Unique ID                                : 262731320377118411554577477907244481209 (0xC5A836338FCA91D738256E855E397AB9)

Complete name                            : Last Week Tonight with John Oliver (2014) S07E23 August 30 2020 (1080p HMAX Webrip x265 10bit EAC3 2.0 - ArcX)[TAoE].mkv

Format                                   : Matroska

Format version                           : Version 4

File size                                : 525 MiB

Duration                                 : 29 min 24 s

Overall bit rate                         : 2 496 kb/s

Movie name                               : Last Week Tonight with John Oliver (2014) S07E23 August 30 2020 (1080p HMAX Webrip x265 10bit EAC3 2.0 - ArcX)[TAoE].mkv

Writing application                      : Lavf58.29.100

Writing library                          : Lavf58.29.100

ErrorDetectionType                       : Per level 1



Video

ID                                       : 1

Format                                   : HEVC

Format/Info                              : High Efficiency Video Coding

Format profile                           : Main [email protected]@Main

Codec ID                                 : V_MPEGH/ISO/HEVC

Duration                                 : 29 min 22 s

Bit rate                                 : 2 303 kb/s

Width                                    : 1 920 pixels

Height                                   : 1 080 pixels

Display aspect ratio                     : 16:9

Frame rate mode                          : Variable

Frame rate                               : 29.970 FPS

Color space                              : YUV

Chroma subsampling                       : 4:2:0

Bit depth                                : 10 bits

Bits/(Pixel*Frame)                       : 0.037

Stream size                              : 484 MiB (92%)

Title                                    : Encoded by ArcX for TAoE using Kori-Web V1.0

Writing library                          : x265 3.2.1+1-b5c86a64bbbe:[Linux][GCC 9.2.1][64 bit] 10bit

Encoding settings                        : cpuid=1111039 / frame-threads=2 / wpp / no-pmode / no-pme / no-psnr / no-ssim / log-level=2 / input-csp=1 / input-res=1920x1080 / interlace=0 / total-frames=0 / level-idc=0 / high-tier=1 / uhd-bd=0 / ref=4 / no-allow-non-conformance / no-repeat-headers / annexb / no-aud / no-hrd / info / hash=0 / no-temporal-layers / open-gop / min-keyint=25 / keyint=250 / gop-lookahead=0 / bframes=8 / b-adapt=2 / b-pyramid / bframe-bias=0 / rc-lookahead=80 / lookahead-slices=4 / scenecut=40 / radl=0 / no-splice / no-intra-refresh / ctu=64 / min-cu-size=8 / no-rect / no-amp / max-tu-size=32 / tu-inter-depth=1 / tu-intra-depth=1 / limit-tu=0 / rdoq-level=2 / dynamic-rd=0.00 / no-ssim-rd / signhide / no-tskip / nr-intra=0 / nr-inter=0 / no-constrained-intra / no-strong-intra-smoothing / max-merge=3 / limit-refs=3 / limit-modes / me=3 / subme=5 / merange=57 / temporal-mvp / no-hme / weightp / no-weightb / no-analyze-src-pics / deblock=0:0 / sao / no-sao-non-deblock / rd=4 / selective-sao=4 / no-early-skip / rskip / no-fast-intra / no-tskip-fast / no-cu-lossless / no-b-intra / no-splitrd-skip / rdpenalty=0 / psy-rd=1.30 / psy-rdoq=2.00 / no-rd-refine / no-lossless / cbqpoffs=0 / crqpoffs=0 / rc=crf / crf=20.0 / qcomp=0.60 / qpstep=4 / stats-write=0 / stats-read=0 / ipratio=1.40 / pbratio=1.30 / aq-mode=4 / aq-strength=1.10 / cutree / zone-count=0 / no-strict-cbr / qg-size=32 / no-rc-grain / qpmax=69 / qpmin=0 / no-const-vbv / sar=1 / overscan=0 / videoformat=5 / range=0 / colorprim=2 / transfer=2 / colormatrix=2 / chromaloc=0 / display-window=0 / cll=0,0 / min-luma=0 / max-luma=1023 / log2-max-poc-lsb=8 / vui-timing-info / vui-hrd-info / slices=1 / no-opt-qp-pps / no-opt-ref-list-length-pps / no-multi-pass-opt-rps / scenecut-bias=0.05 / no-opt-cu-delta-qp / no-aq-motion / no-hdr / no-hdr-opt / no-dhdr10-opt / no-idr-recovery-sei / analysis-reuse-level=5 / scale-factor=0 / refine-intra=0 / refine-inter=0 / refine-mv=1 / refine-ctu-distortion=0 / no-limit-sao / ctu-info=0 / no-lowpass-dct / refine-analysis-type=0 / copy-pic=1 / max-ausize-factor=1.0 / no-dynamic-refine / no-single-sei / no-hevc-aq / no-svt / no-field / qp-adaptation-range=1.00

Default                                  : Yes

Forced                                   : No

Color range                              : Limited



Audio

ID                                       : 2

Format                                   : E-AC-3

Format/Info                              : Enhanced AC-3

Commercial name                          : Dolby Digital Plus

Codec ID                                 : A_EAC3

Duration                                 : 29 min 22 s

Bit rate mode                            : Constant

Bit rate                                 : 192 kb/s

Channel(s)                               : 2 channels

Channel layout                           : L R

Sampling rate                            : 48.0 kHz

Frame rate                               : 31.250 FPS (1536 SPF)

Bit depth                                : 32 bits

Compression mode                         : Lossy

Stream size                              : 80.7 MiB (15%)

Writing library                          : Lavc58.54.100 eac3

Language                                 : English

Service kind                             : Complete Main

Default                                  : Yes

Forced                                   : No



Text

ID                                       : 3

Format                                   : UTF-8

Codec ID                                 : S_TEXT/UTF8

Codec ID/Info                            : UTF-8 Plain Text

Duration                                 : 29 min 24 s

Bit rate                                 : 128 b/s

Count of elements                        : 1112

Stream size                              : 27.5 KiB (0%)

Title                                    : SDH

Language                                 : English

Default                                  : No

Forced                                   : No



Menu

00:29:03.000                             : :Credits



Source Information

1080p HMAX Web-DL monkee

Discussion

Comments 0

Post Your Comment

Files in this torrent

FILENAMESIZE
Last Week Tonight with John Oliver (2014) S07E23 August 30 2020 (1080p HMAX Webrip x265 10bit EAC3 2.0 - ArcX)[TAoE].mkv524.9 MB

Alternative Torrents for 'Last Week Tonight with John Oliver August HMAX bit EAC ArcX'.

TORRENT NAMEADDEDSIZESEEDSPEERSHEALTH
10/20/20202 GB65887
10/19/2020886 MB470139
10/13/2020730 MB33746
10/9/20202.3 GB31411
10/20/2020886 MB27222
10/20/2020301 MB27013
10/16/2020345 MB252129
10/13/20201.5 GB21316
10/19/2020897 MB1979
10/12/2020797 MB19111
10/14/2020871 MB15521
10/9/20201.5 GB15416
10/20/20203.3 GB14723
10/19/2020309 MB13512
Yesterday3.7 GB13440