The Babysitter Killer Queen 2020 X264 720p Esub NetFLix Dual Audio Hindi English GOPI SAHI

Torrent Details

The Babysitter Killer Queen 2020 x264 720p Esub NetFLix Dual Audio Hindi English GOPI SAHI
The Babysitter Killer Queen 2020 x264 720p Esub NetFLix Dual Audio Hindi English GOPI SAHI

NAME
The Babysitter Killer Queen 2020 x264 720p Esub NetFLix Dual Audio Hindi English GOPI SAHI.torrent
CATEGORY
Movies
INFOHASH
94ba7f5084f4d2a8c109e34f0925467753c53c98
SIZE
800 MB in 1 file
ADDED
Uploaded on 12-09-2020 by our crawler pet called "Spidey".
SWARM
0 seeders & 0 peers
RATING
No votes yet.

Please login to vote for this torrent.


Description

https://www.jattrules.com/



The Babysitter Killer Queen 2020 x264 720p Esub NetFLix Dual Audio Hindi English GOPI SAHI


Format : Matroska

Format version : Version 4

File size : 800 MiB

Duration : 1 h 42 min

Overall bit rate : 1 092 kb/s

Movie name : The Babysitter Killer Queen 2020 GOPI SAHI


Video

ID : 1

Format : AVC

Format/Info : Advanced Video Codec

Format profile : [email protected]

Format settings : CABAC / 5 Ref Frames

Format settings, CABAC : Yes

Format settings, Reference fra : 5 frames

Codec ID : V_MPEG4/ISO/AVC

Duration : 1 h 42 min

Bit rate : 899 kb/s

Width : 1 280 pixels

Height : 536 pixels

Display aspect ratio : 2.40:1

Frame rate mode : Constant

Frame rate : 24.000 FPS

Color space : YUV

Chroma subsampling : 4:2:0

Bit depth : 8 bits

Scan type : Progressive

Bits/(Pixel*Frame) : 0.055

Stream size : 659 MiB (82%)

Title : GOPI SAHI

Writing library : x264 core 157 r2935 545de2f


Audio #1

ID : 2

Format : AAC LC

Format/Info : Advanced Audio Codec Low Complexity

Codec ID : A_AAC-2

Duration : 1 h 42 min

Bit rate : 96.0 kb/s

Channel(s) : 2 channels

Channel layout : L R

Sampling rate : 48.0 kHz

Frame rate : 46.875 FPS (1024 SPF)

Compression mode : Lossy

Delay relative to video : -21 ms

Stream size : 69.8 MiB (9%)

Title : GOPI SAHI

Language : Hindi

Default : Yes

Forced : No


Audio #2

ID : 3

Format : AAC LC

Format/Info : Advanced Audio Codec Low Complexity

Codec ID : A_AAC-2

Duration : 1 h 42 min

Bit rate : 96.0 kb/s

Channel(s) : 2 channels

Channel layout : L R

Sampling rate : 48.0 kHz

Frame rate : 46.875 FPS (1024 SPF)

Compression mode : Lossy

Delay relative to video : -21 ms

Stream size : 69.7 MiB (9%)

Title : GOPI SAHI

Language : English

Default : No

Forced : No


Text

ID : 4

Format : UTF-8

Codec ID : S_TEXT/UTF8

Codec ID/Info : UTF-8 Plain Text

Duration : 1 h 40 min

Bit rate : 81 b/s

Count of elements : 1840

Stream size : 59.6 KiB (0%)

Title : GOPI SAHI

Language : English

Default : Yes

Forced : No





Discussion

Comments 0

Post Your Comment

Files in this torrent

FILENAMESIZE
The Babysitter Killer Queen 2020 x264 720p Esub NetFLix Dual Audio Hindi English GOPI SAHI.mkv800.4 MB

Alternative Torrents for 'Babysitter Killer Queen Esub NetFLix Dual Audio Hindi English GOPI SAHI'.

TORRENT NAMEADDEDSIZESEEDSPEERSHEALTH
9/12/2020800 MB00