Ava 2020 BDRip 1080p DUB HEVC 10bit Mikos

Torrent Details


Ava 2020 BDRip 1080p DUB HEVC 10bit mikos

NAME
Ava 2020 BDRip 1080p DUB HEVC 10bit mikos.torrent
CATEGORY
Movies
INFOHASH
025f1a0c7258a3ceb5105182ef3721952442af32
SIZE
4.2 GB in 1 file
ADDED
Uploaded on 12-09-2020 by our crawler pet called "Spidey".
SWARM
0 seeders & 0 peers
RATING
No votes yet.

Please login to vote for this torrent.


Description

Год выхода: 2020

Страна / Студия: США / Freckle Films, Voltage Pictures

Жанр: Боевик, триллер, драма, криминал

Продолжительность: 01:36:49

Перевод: Дублированный (iTunes)



Режиссер: Тейт Тейлор

В ролях: Джессика Честейн, Коммон, Джон Малкович, Колин Фаррелл, Джина Дэвис, Диана Сильверс, Йоан Гриффит, Джоан Чен, Джесс Вейкслер, Джанель Фейгли



Описание: Она умна, красива и чрезвычайно опасна. Перемещаясь по миру словно тень, наёмная убийца Ева убирает людей по заданию руководства, но с очередным объектом всё проходит не так гладко. Когда Ева решает наладить отношения с семьёй - сестрой и матерью, которых она не видела 8 лет, - на неё вдруг совершается покушение.



Качество: BDRip 1080p

Видео: HEVC/H.265, 1920x802, ~5158 Kbps

Аудио 1: AC3, 6 ch, 384 Kbps - Русский, дублированный (iTunes)

Аудио 2: AC3, 6 ch, 640 Kbps - Английский

Субтитры: Русские (форсированные х2, полные х2), английские (полные, SDH)







Релиз от: mikos



Mediainfo

Общее

Уникальный идентификатор : 235799216878904988084721751204153141006 (0xB16546FAD708D9BFAA05250FC212270E)

Полное имя : R:Ava 2020.BDRip.1080p.DUB.HEVC.10bit.mikos.mkv

Формат : Matroska

Версия формата : Version 4 / Version 2

Размер файла : 4,18 Гбайт

Продолжительность : 1 ч. 36 м.

Общий поток : 6184 Кбит/сек

Название фильма : Ava 2020.BDRip.1080p.DUB.HEVC.10bit.mikos

Дата кодирования : UTC 2020-09-11 17:05:24

Программа кодирования : mkvmerge v50.0.0 ('Awakenings') 64-bit

Библиотека кодирования : libebml v1.4.0 + libmatroska v1.6.2



Видео

Идентификатор : 1

Формат : HEVC

Формат/Информация : High Efficiency Video Coding

Профиль формата : Main [email protected]@High

Идентификатор кодека : V_MPEGH/ISO/HEVC

Продолжительность : 1 ч. 36 м.

Битрейт : 5158 Кбит/сек

Ширина : 1920 пикселей

Высота : 802 пикселя

Соотношение сторон : 2,40:1

Режим частоты кадров : Постоянный

Частота кадров : 23,976 (24000/1001) кадра/сек

Цветовое пространство : YUV

Субдискретизация насыщенности : 4:2:0

Битовая глубина : 10 бит

Бит/(Пиксели*Кадры) : 0.140

Размер потока : 3,49 Гбайт (83%)

Заголовок : Рип от mikos

Библиотека кодирования : x265 3.4+20-g343c58ef6:[Windows][clang 10.0.1][64 bit] 10bit

Настройки программы : cpuid=1111039 / frame-threads=3 / numa-pools=12 / wpp / no-pmode / no-pme / no-psnr / no-ssim / log-level=3 / input-csp=1 / input-res=1920x802 / interlace=0 / total-frames=0 / level-idc=41 / high-tier=1 / uhd-bd=0 / ref=5 / allow-non-conformance / no-repeat-headers / annexb / no-aud / no-hrd / info / hash=0 / no-temporal-layers / open-gop / min-keyint=23 / keyint=240 / gop-lookahead=0 / bframes=14 / b-adapt=2 / b-pyramid / bframe-bias=0 / rc-lookahead=50 / lookahead-slices=5 / scenecut=40 / hist-scenecut=0 / radl=0 / no-splice / no-intra-refresh / ctu=32 / min-cu-size=8 / no-rect / no-amp / max-tu-size=32 / tu-inter-depth=1 / tu-intra-depth=1 / limit-tu=0 / rdoq-level=0 / dynamic-rd=0.00 / no-ssim-rd / signhide / no-tskip / nr-intra=0 / nr-inter=0 / no-constrained-intra / strong-intra-smoothing / max-merge=3 / limit-refs=1 / no-limit-modes / me=2 / subme=7 / merange=57 / temporal-mvp / no-frame-dup / no-hme / weightp / no-weightb / no-analyze-src-pics / deblock=-3:-2 / no-sao / no-sao-non-deblock / rd=3 / selective-sao=0 / early-skip / rskip / no-fast-intra / no-tskip-fast / no-cu-lossless / b-intra / no-splitrd-skip / rdpenalty=0 / psy-rd=2.00 / psy-rdoq=0.00 / no-rd-refine / no-lossless / cbqpoffs=0 / crqpoffs=0 / rc=crf / crf=18.4 / qcomp=0.65 / qpstep=4 / stats-write=0 / stats-read=0 / vbv-maxrate=50000 / vbv-bufsize=50000 / vbv-init=0.9 / crf-max=28.0 / crf-min=0.0 / ipratio=1.40 / pbratio=1.30 / aq-mode=1 / aq-strength=1.10 / no-cutree / zone-count=0 / no-strict-cbr / qg-size=32 / no-rc-grain / qpmax=69 / qpmin=0 / no-const-vbv / sar=1 / overscan=0 / videoformat=5 / range=0 / colorprim=1 / transfer=1 / colormatrix=1 / chromaloc=0 / display-window=0 / cll=0,0 / min-luma=0 / max-luma=1023 / log2-max-poc-lsb=8 / vui-timing-info / vui-hrd-info / slices=1 / no-opt-qp-pps / no-opt-ref-list-length-pps / no-multi-pass-opt-rps / scenecut-bias=0.05 / hist-threshold=0.03 / no-opt-cu-delta-qp / no-aq-motion / no-hdr10 / no-hdr10-opt / no-dhdr10-opt / no-idr-recovery-sei / analysis-reuse-level=0 / analysis-save-reuse-level=0 / analysis-load-reuse-level=0 / scale-factor=0 / refine-intra=0 / refine-inter=0 / refine-mv=1 / refine-ctu-distortion=0 / no-limit-sao / ctu-info=0 / no-lowpass-dct / refine-analysis-type=0 / copy-pic=1 / max-ausize-factor=1.0 / no-dynamic-refine / no-single-sei / no-hevc-aq / no-svt / no-field / qp-adaptation-range=1.00 / no-scenecut-aware-qpconformance-window-offsets / right=0 / bottom=0 / decoder-max-rate=0

Язык : English

Default : Да

Forced : Нет

Цветовой диапазон : Limited

Основные цвета : BT.709

Характеристики трансфера : BT.709

Коэффициенты матрицы : BT.709



Аудио #1

Идентификатор : 2

Формат : AC-3

Формат/Информация : Audio Coding 3

Идентификатор кодека : A_AC3

Продолжительность : 1 ч. 36 м.

Вид битрейта : Постоянный

Битрейт : 384 Кбит/сек

Каналы : 6 каналов

Расположение каналов : Front: L C R, Side: L R, LFE

Частота : 48,0 КГц

Частота кадров : 31,250 кадров/сек (1536 SPF)

Битовая глубина : 16 бит

Метод сжатия : С потерями

Размер потока : 266 Мбайт (6%)

Заголовок : Dub [iTunes]

Язык : Russian

ServiceKind/Strin : Complete Main

Default : Да

Forced : Нет



Аудио #2

Идентификатор : 3

Формат : AC-3

Формат/Информация : Audio Coding 3

Идентификатор кодека : A_AC3

Продолжительность : 1 ч. 36 м.

Вид битрейта : Постоянный

Битрейт : 640 Кбит/сек

Каналы : 6 каналов

Расположение каналов : Front: L C R, Side: L R, LFE

Частота : 48,0 КГц

Частота кадров : 31,250 кадров/сек (1536 SPF)

Битовая глубина : 16 бит

Метод сжатия : С потерями

Размер потока : 443 Мбайт (10%)

Заголовок : Original

Язык : English

ServiceKind/Strin : Complete Main

Default : Нет

Forced : Нет



Текст #1

Идентификатор : 4

Формат : UTF-8

Идентификатор кодека : S_TEXT/UTF8

Идентификатор кодека/Информация : UTF-8 Plain Text

Продолжительность : 54 м. 4 с.

Битрейт : 7 бит/сек

ElementCount : 55

Размер потока : 2,93 Кбайт (0%)

Заголовок : Forced [For iTunes]

Язык : Russian

Default : Да

Forced : Да



Текст #2

Идентификатор : 5

Формат : UTF-8

Идентификатор кодека : S_TEXT/UTF8

Идентификатор кодека/Информация : UTF-8 Plain Text

Продолжительность : 54 м. 4 с.

Битрейт : 9 бит/сек

ElementCount : 83

Размер потока : 3,93 Кбайт (0%)

Заголовок : Forced [For HDRezka Studio]

Язык : Russian

Default : Нет

Forced : Нет



Текст #3

Идентификатор : 6

Формат : UTF-8

Идентификатор кодека : S_TEXT/UTF8

Идентификатор кодека/Информация : UTF-8 Plain Text

Продолжительность : 1 ч. 31 м.

Битрейт : 71 бит/сек

ElementCount : 1094

Размер потока : 47,7 Кбайт (0%)

Заголовок : Full [iTunes]

Язык : Russian

Default : Нет

Forced : Нет



Текст #4

Идентификатор : 7

Формат : UTF-8

Идентификатор кодека : S_TEXT/UTF8

Идентификатор кодека/Информация : UTF-8 Plain Text

Продолжительность : 1 ч. 32 м.

Битрейт : 76 бит/сек

ElementCount : 1107

Размер потока : 51,5 Кбайт (0%)

Заголовок : Full [FOCS]

Язык : Russian

Default : Нет

Forced : Нет



Текст #5

Идентификатор : 8

Формат : UTF-8

Идентификатор кодека : S_TEXT/UTF8

Идентификатор кодека/Информация : UTF-8 Plain Text

Продолжительность : 1 ч. 30 м.

Битрейт : 47 бит/сек

ElementCount : 912

Размер потока : 31,7 Кбайт (0%)

Заголовок : Full

Язык : English

Default : Нет

Forced : Нет



Текст #6

Идентификатор : 9

Формат : UTF-8

Идентификатор кодека : S_TEXT/UTF8

Идентификатор кодека/Информация : UTF-8 Plain Text

Продолжительность : 1 ч. 31 м.

Битрейт : 52 бит/сек

ElementCount : 1067

Размер потока : 35,1 Кбайт (0%)

Заголовок : SDH

Язык : English

Default : Нет

Forced : Нет



Меню

00:00:00.000 : :Глава 01

00:11:07.542 : :Глава 02

00:21:53.145 : :Глава 03

00:32:22.899 : :Глава 04

00:44:26.497 : :Глава 05

00:58:33.427 : :Глава 06

01:10:38.192 : :Глава 07

01:18:23.949 : :Глава 08

01:32:28.752 : :Глава 09

Discussion

Comments 0

Post Your Comment

Files in this torrent

FILENAMESIZE
Ava 2020.BDRip.1080p.DUB.HEVC.10bit.mikos.mkv4.2 GB

Alternative Torrents for 'Ava DUB HEVC bit mikos'.

TORRENT NAMEADDEDSIZESEEDSPEERSHEALTH
10/22/20203.3 GB8561715
10/22/2020408 MB549246
10/22/2020192 MB26239
10/15/2020844 MB1936
10/9/20202.3 GB1792
Yesterday222 MB16460
Yesterday183 MB16318
Yesterday499 MB139145
Yesterday199 MB13841
10/22/2020544 MB13149
10/22/2020188 MB13024
10/19/2020191 MB13010
10/22/2020678 MB128106
10/9/202015.3 GB12655
10/22/2020194 MB11547