Survive The Night 2020 BluRay 1080p H264 Eng AC3

Torrent Details


Survive The Night 2020 BluRay 1080p H264 Eng AC3

NAME
Survive The Night 2020 BluRay 1080p H264 Eng AC3.torrent
CATEGORY
Movies
INFOHASH
08ce7c368c278273a7137c922df6760eb51b2fb0
SIZE
1.2 GB in 2 files
ADDED
Uploaded on 13-09-2020 by our crawler pet called "Spidey".
SWARM
0 seeders & 0 peers
RATING
No votes yet.

Please login to vote for this torrent.


Description

Quote:



******************************Thumbnbil:**********************









******************************Screenshots:********************



screenshot 1



screenshot 2



screenshot 3



screenshot 4



screenshot 5



screenshot 6



screenshot 7



screenshot 8



screenshot 9



screenshot 0





******************************************************



Survive The Night 2020.BluRay.1080p.H264.Eng.AC3.LLG.mp4

Format                                   : MPEG-4

Format profile                           : Base Media

Codec ID                                 : isom (isom/iso2/avc1/mp41)

File size                                : 1.23 GiB

Duration                                 : 1 h 29 min

Overall bit rate mode                    : Variable

Overall bit rate                         : 1 971 kb/s

Writing application                      : Lavf58.29.100



Video

ID                                       : 1

Format                                   : AVC

Format/Info                              : Advanced Video Codec

Format profile                           : [email protected]

Format settings                          : CABAC / 1 Ref Frames

Format settings, CABAC                   : Yes

Format settings, Reference frames        : 1 frame

Codec ID                                 : avc1

Codec ID/Info                            : Advanced Video Coding

Duration                                 : 1 h 29 min

Bit rate mode                            : Variable

Bit rate                                 : 1 455 kb/s

Maximum bit rate                         : 4 500 kb/s

Width                                    : 1 920 pixels

Height                                   : 960 pixels

Display aspect ratio                     : 2.000

Frame rate mode                          : Constant

Frame rate                               : 23.976 (23976/1000) FPS

Color space                              : YUV

Chroma subsampling                       : 4:2:0

Bit depth                                : 8 bits

Scan type                                : Progressive

Bits/(Pixel*Frame)                       : 0.033

Stream size                              : 929 MiB (74%)

Codec configuration box                  : avcC



Audio

ID                                       : 2

Format                                   : AC-3

Format/Info                              : Audio Coding 3

Commercial name                          : Dolby Digital

Codec ID                                 : ac-3

Duration                                 : 1 h 29 min

Bit rate mode                            : Constant

Bit rate                                 : 512 kb/s

Channel(s)                               : 6 channels

Channel layout                           : L R C LFE Ls Rs

Sampling rate                            : 48.0 kHz

Frame rate                               : 31.250 FPS (1536 SPF)

Compression mode                         : Lossy

Stream size                              : 327 MiB (26%)

Language                                 : English

Service kind                             : Complete Main

Default                                  : Yes

Alternate group                          : 1









********************************************************

Discussion

Comments 0

Post Your Comment

Files in this torrent

FILENAMESIZE
SAMPLE.ts11.8 MB
Survive The Night 2020.BluRay.1080p.H264.Eng.AC3.LLG.mp41.2 GB

Alternative Torrents for 'Survive Night BluRay Eng'.

TORRENT NAMEADDEDSIZESEEDSPEERSHEALTH
9/13/20201.2 GB00
9/13/20201.1 GB00
9/12/20202.2 GB00