[kickass To]the Butler 2013 Cam New Source Xvid Mp3 Millenium Torrent

Torrent Details

[kickass to]the butler 2013 cam new source xvid mp3 millenium torrent[kickass to]the butler 2013 cam new source xvid mp3 millenium torrent

NAME
[kickass to]the butler 2013 cam new source xvid mp3 millenium torrent.torrent
CATEGORY
Movies
INFOHASH
3fb8cad4717de22d592c73bfb3bd52d6f0b2accd
SIZE
139 kB in 1 file
ADDED
Uploaded on 21-11-2013 by our crawler pet called "Spidey".
SWARM
0 seeders & 0 peers
RATING
No votes yet.

Please login to vote for this torrent.


Description

Description


http://www.imdb.com/title/tt1327773/
/>
Complete name : The Butler 2013 CAM Xvid Mp3-MiLLENiUM.avi

Source : HP [thanks]

Format : AVI

Format/Info : Audio Video Interleave

File size : 1.68 GiB

Duration : 2h 11mn

Overall bit rate : 1 825 Kbps

Writing application : VirtualDubMod 1.5.10.2 (build 2540/release)

Writing library : VirtualDubMod build 2540/release
Video

ID : 0

Format : MPEG-4 Visual

Format profile : Advanced [email protected]

Format settings, BVOP : 2

Format settings, QPel : No

Format settings, GMC : No warppoints

Format settings, Matrix : Default (H.263)

Muxing mode : Packed bitstream

Codec ID : XVID

Codec ID/Hint : XviD

Duration : 2h 11mn

Bit rate : 1 685 Kbps

Width : 720 pixels

Height : 352 pixels

Display aspect ratio : 2.045

Frame rate : 29.970 fps

Color space : YUV

Chroma subsampling : 4:2:0

Bit depth : 8 bits

Scan type : Progressive

Compression mode : Lossy

Bits/(Pixel*Frame) : 0.222

Stream size : 1.55 GiB (92%)

Writing library : XviD 64
Audio

ID : 1

Format : MPEG Audio

Format version : Version 1

Format profile : Layer 3

Codec ID : 55

Codec ID/Hint : MP3

Duration : 2h 11mn

Bit rate mode : Constant

Bit rate : 128 Kbps

Channel(s) : 2 channels

Sampling rate : 44.1 KHz

Compression mode : Lossy

Stream size : 121 MiB (7%)

Alignment : Split accross interleaves

Interleave, duration : 33 ms (1.00 video frame)

Interleave, preload duration : 500 ms
NOTES :
resized and filtered video and audio enjoy...
PLOT :
As Cecil Gaines serves eight presidents during his tenure as a butler at the White House,

the civil rights movement, Vietnam, and other major events affect this man's life,

family, and American so

Discussion

Comments 0

Post Your Comment

Files in this torrent

FILENAMESIZE
[kickass.to]the.butler.2013.cam.new.source.xvid.mp3.millenium.torrent138.8 KB

Alternative Torrents for 'kickass to butler cam source millenium torrent'.

TORRENT NAMEADDEDSIZESEEDSPEERSHEALTH
11/21/2013139 kB00