DOA Dead Or Alive 2006 X264 720p Esub BluRay Dual Audio English Hindi Telugu Tamil GOPI SAHI

Torrent Details


DOA Dead or Alive 2006 x264 720p Esub BluRay Dual Audio English Hindi Telugu Tamil GOPI SAHI

NAME
DOA Dead or Alive 2006 x264 720p Esub BluRay Dual Audio English Hindi Telugu Tamil GOPI SAHI.torrent
CATEGORY
Movies
INFOHASH
a11f398a1d6cb6d08eaa12b3263b538d3676fe19
SIZE
799 MB in 1 file
ADDED
Uploaded on 18-09-2020 by our crawler pet called "Spidey".
SWARM
0 seeders & 0 peers
RATING
No votes yet.

Please login to vote for this torrent.


Description

https://www.jattrules.com/







DOA Dead or Alive 2006 x264 720p Esub BluRay Dual Audio English Hindi GOPI SAHI





Format                         : Matroska



Format version                 : Version 4



File size                      : 799 MiB



Duration                       : 1 h 26 min



Overall bit rate               : 1 297 kb/s



Movie name                     : DOA Dead or Alive 2006  GOPI SAHI



Encoded date                   : UTC 2020-09-16 07:06:09



Writing application            : mkvmerge v46.0.0 ('No Deeper Escape') 32-bit



Writing library                : libebml v1.3.10 + libmatroska v1.5.2



Attachments                    : Hammer Logo.jpg





Video



ID                             : 1



Format                         : AVC



Format/Info                    : Advanced Video Codec



Format profile                 : [email protected]



Format settings                : CABAC / 5 Ref Frames



Format settings, CABAC         : Yes



Format settings, Reference fra : 5 frames



Codec ID                       : V_MPEG4/ISO/AVC



Duration                       : 1 h 26 min



Bit rate                       : 899 kb/s



Width                          : 1 280 pixels



Height                         : 544 pixels



Display aspect ratio           : 2.35:1



Frame rate mode                : Constant



Frame rate                     : 23.976 (24000/1001) FPS



Color space                    : YUV



Chroma subsampling             : 4:2:0



Bit depth                      : 8 bits



Scan type                      : Progressive



Bits/(Pixel*Frame)             : 0.054



Stream size                    : 553 MiB (69%)



Title                          : GOPI SAHI



Writing library                : x264 core 157 r2935 545de2f





Audio #1



ID                             : 2



Format                         : AAC LC



Format/Info                    : Advanced Audio Codec Low Complexity



Codec ID                       : A_AAC-2



Duration                       : 1 h 26 min



Bit rate                       : 96.0 kb/s



Channel(s)                     : 2 channels



Channel layout                 : L R



Sampling rate                  : 48.0 kHz



Frame rate                     : 46.875 FPS (1024 SPF)



Compression mode               : Lossy



Delay relative to video        : -17 ms



Stream size                    : 59.4 MiB (7%)



Title                          : GOPI SAHI



Language                       : Hindi



Default                        : Yes



Forced                         : No





Audio #2



ID                             : 3



Format                         : AAC LC



Format/Info                    : Advanced Audio Codec Low Complexity



Codec ID                       : A_AAC-2



Duration                       : 1 h 26 min



Bit rate                       : 96.0 kb/s



Channel(s)                     : 2 channels



Channel layout                 : L R



Sampling rate                  : 48.0 kHz



Frame rate                     : 46.875 FPS (1024 SPF)



Compression mode               : Lossy



Delay relative to video        : -21 ms



Stream size                    : 59.5 MiB (7%)



Title                          : GOPI SAHI



Language                       : English



Default                        : No



Forced                         : No





Audio #3



ID                             : 4



Format                         : AAC LC



Format/Info                    : Advanced Audio Codec Low Complexity



Codec ID                       : A_AAC-2



Duration                       : 1 h 26 min



Bit rate                       : 96.0 kb/s



Channel(s)                     : 2 channels



Channel layout                 : L R



Sampling rate                  : 48.0 kHz



Frame rate                     : 46.875 FPS (1024 SPF)



Compression mode               : Lossy



Delay relative to video        : -17 ms



Stream size                    : 59.4 MiB (7%)



Title                          : GOPI SAHI



Language                       : Tamil



Default                        : No



Forced                         : No





Audio #4



ID                             : 5



Format                         : AAC LC



Format/Info                    : Advanced Audio Codec Low Complexity



Codec ID                       : A_AAC-2



Duration                       : 1 h 26 min



Bit rate                       : 96.0 kb/s



Channel(s)                     : 2 channels



Channel layout                 : L R



Sampling rate                  : 48.0 kHz



Frame rate                     : 46.875 FPS (1024 SPF)



Compression mode               : Lossy



Delay relative to video        : -17 ms



Stream size                    : 59.4 MiB (7%)



Title                          : GOPI SAHI



Language                       : Telugu



Default                        : No



Forced                         : No





Text



ID                             : 6



Format                         : PGS



Muxing mode                    : zlib



Codec ID                       : S_HDMV/PGS



Codec ID/Info                  : Picture based subtitle format used on BDs/HD-DVDs



Duration                       : 1 h 18 min



Bit rate                       : 30.8 kb/s



Count of elements              : 1576



Stream size                    : 17.4 MiB (2%)



Title                          : GOPI SAHI



Language                       : English



Default                        : Yes



Forced                         : No











Discussion

Comments 0

Post Your Comment

Files in this torrent

FILENAMESIZE
DOA Dead or Alive 2006 x264 720p Esub BluRay Dual Audio English Hindi Telugu Tamil GOPI SAHI.mkv799.5 MB

Alternative Torrents for 'DOA Dead or Alive Esub BluRay Dual Audio English Hindi Telugu Tamil GOPI SAHI'.

TORRENT NAMEADDEDSIZESEEDSPEERSHEALTH
9/18/2020799 MB00