The Room 2019 X264 720p Esub BluRay Dual Audio English Hindi GOPI SAHI

Torrent Details


The Room 2019 x264 720p Esub BluRay Dual Audio English Hindi GOPI SAHI

NAME
The Room 2019 x264 720p Esub BluRay Dual Audio English Hindi GOPI SAHI.torrent
CATEGORY
Movies
INFOHASH
28a2e6a3788acab6da26618d0c29618a87110228
SIZE
916 MB in 1 file
ADDED
Uploaded on 18-09-2020 by our crawler pet called "Spidey".
SWARM
2 seeders & 2 peers
RATING
No votes yet.

Please login to vote for this torrent.


Description

https://www.jattrules.com/



The Room 2019 x264 Esub Dual Audio English Hindi GOPI SAHI


Format : Matroska

Format version : Version 4

File size : 916 MiB

Duration : 1 h 39 min

Overall bit rate : 1 289 kb/s

Movie name : The Room 2019 GOPI SAHI

Encoded date : UTC 2020-09-17 04:25:51

Writing application : mkvmerge v46.0.0 ('No Deeper Escape') 32-bit

Writing library : libebml v1.3.10 + libmatroska v1.5.2


Video

ID : 1

Format : AVC

Format/Info : Advanced Video Codec

Format profile : [email protected]

Format settings : CABAC / 5 Ref Frames

Format settings, CABAC : Yes

Format settings, Reference fra : 5 frames

Codec ID : V_MPEG4/ISO/AVC

Duration : 1 h 39 min

Bit rate : 899 kb/s

Width : 960 pixels

Height : 400 pixels

Display aspect ratio : 2.40:1

Frame rate mode : Constant

Frame rate : 24.000 FPS

Color space : YUV

Chroma subsampling : 4:2:0

Bit depth : 8 bits

Scan type : Progressive

Bits/(Pixel*Frame) : 0.098

Stream size : 639 MiB (70%)

Title : GOPI SAHI

Writing library : x264 core 157 r2935 545de2f


Audio #1

ID : 2

Format : AAC LC

Format/Info : Advanced Audio Codec Low Complexity

Codec ID : A_AAC-2

Duration : 1 h 39 min

Bit rate : 96.0 kb/s

Channel(s) : 2 channels

Channel layout : L R

Sampling rate : 48.0 kHz

Frame rate : 46.875 FPS (1024 SPF)

Compression mode : Lossy

Delay relative to video : -21 ms

Stream size : 68.6 MiB (7%)

Title : GOPI SAHI

Language : Hindi

Default : Yes

Forced : No


Audio #2

ID : 3

Format : AAC LC

Format/Info : Advanced Audio Codec Low Complexity

Codec ID : A_AAC-2

Duration : 1 h 39 min

Bit rate : 96.0 kb/s

Channel(s) : 2 channels

Channel layout : L R

Sampling rate : 48.0 kHz

Frame rate : 46.875 FPS (1024 SPF)

Compression mode : Lossy

Delay relative to video : -21 ms

Stream size : 68.5 MiB (7%)

Title : GOPI SAHI

Language : English

Default : No

Forced : No


Audio #3

ID : 4

Format : AAC LC

Format/Info : Advanced Audio Codec Low Complexity

Codec ID : A_AAC-2

Duration : 1 h 39 min

Bit rate : 96.0 kb/s

Channel(s) : 2 channels

Channel layout : L R

Sampling rate : 48.0 kHz

Frame rate : 46.875 FPS (1024 SPF)

Compression mode : Lossy

Delay relative to video : -21 ms

Stream size : 68.5 MiB (7%)

Title : GOPI SAHI

Language : Tamil

Default : No

Forced : No


Audio #4

ID : 5

Format : AAC LC

Format/Info : Advanced Audio Codec Low Complexity

Codec ID : A_AAC-2

Duration : 1 h 39 min

Bit rate : 96.0 kb/s

Channel(s) : 2 channels

Channel layout : L R

Sampling rate : 48.0 kHz

Frame rate : 46.875 FPS (1024 SPF)

Compression mode : Lossy

Delay relative to video : -21 ms

Stream size : 68.5 MiB (7%)

Title : GOPI SAHI

Language : Telugu

Default : No

Forced : No


Text

ID : 6

Format : UTF-8

Codec ID : S_TEXT/UTF8

Codec ID/Info : UTF-8 Plain Text

Duration : 1 h 32 min

Bit rate : 23 b/s

Count of elements : 695

Stream size : 15.9 KiB (0%)

Title : GOPI SAHI

Language : English

Default : Yes

Forced : No





Discussion

Comments 0

Post Your Comment

Files in this torrent

FILENAMESIZE
The Room 2019 x264 720p Esub BluRay Dual Audio English Hindi GOPI SAHI.mkv916.3 MB

Alternative Torrents for 'Room Esub BluRay Dual Audio English Hindi GOPI SAHI'.

TORRENT NAMEADDEDSIZESEEDSPEERSHEALTH
10/13/20201 GB20
9/18/2020916 MB22
5/28/2020936 MB00
6/26/2017754 MB00