22 Jump Street (2014) (2160p HDR BDRip X265 10bit TrueHD 7.1 Atmos + AC3 5.1 - R0b0t) [TAoE]

Torrent Details

22 Jump Street (2014) (2160p HDR BDRip x265 10bit TrueHD 7.1 Atmos + AC3 5.1 - r0b0t) <span style=color:#fc9c6d>[TAoE]</span>
22 Jump Street (2014) (2160p HDR BDRip x265 10bit TrueHD 7.1 Atmos + AC3 5.1 - r0b0t) <span style=color:#fc9c6d>[TAoE]</span>

NAME
22 Jump Street (2014) (2160p HDR BDRip x265 10bit TrueHD 7.1 Atmos + AC3 5.1 - r0b0t) [TAoE].torrent
CATEGORY
Movies
INFOHASH
487c86c1eecd05a1a30579b1187ebf43b29c2f3e
SIZE
21.3 GB in 1 file
ADDED
Uploaded on 18-09-2020 by our crawler pet called "Spidey".
SWARM
4 seeders & 4 peers
RATING
No votes yet.

Please login to vote for this torrent.


Description









22 Jump Street (2014) IMDB





















Source

22.Jump.Street.2014.UHD.BluRay.2160p.TrueHD.Atmos.7.1.HEVC.REMUX-FraMeSToR



Media Information

General

Unique ID                   : 294963750777778987946113342114820619710 (0xDDE7F3B72295D1070F99F41C60617DBE)

Complete name               : 22 Jump Street (2014) (2160p HDR BDRip x265 10bit TrueHD 7.1 Atmos + AC3 5.1 - r0b0t) [TAoE].mkv

Format                      : Matroska

Format version              : Version 4

File size                   : 21.3 GiB

Duration                    : 1 h 51 min

Overall bit rate mode       : Variable

Overall bit rate            : 27.2 Mb/s

Writing application         : Lavf58.29.100

Writing library             : Lavf58.29.100

ErrorDetectionType          : Per level 1

IMDB                        : tt2294449

TMDB                        : movie/187017



Video

ID                          : 1

Format                      : HEVC

Format/Info                 : High Efficiency Video Coding

Format profile              : Main [email protected]@High

HDR format                  : SMPTE ST 2086, HDR10 compatible

Codec ID                    : V_MPEGH/ISO/HEVC

Duration                    : 1 h 51 min

Bit rate                    : 21.4 Mb/s

Width                       : 3 840 pixels

Height                      : 1 600 pixels

Display aspect ratio        : 2.40:1

Frame rate mode             : Constant

Frame rate                  : 23.976 (24000/1001) FPS

Color space                 : YUV

Chroma subsampling          : 4:2:0 (Type 2)

Bit depth                   : 10 bits

Bits/(Pixel*Frame)          : 0.145

Stream size                 : 16.7 GiB (78%)

Title                       : Encoded by r0b0t for TAoE using Iro V2.0

Writing library             : x265 3.3+29-1e3dbf09ee4f:[Windows][GCC 9.3.1][64 bit] 10bit

Encoding settings           : cpuid=1111039 / frame-threads=4 / numa-pools=16 / wpp / no-pmode / no-pme / no-psnr / no-ssim / log-level=2 / input-csp=1 / input-res=3840x1600 / interlace=0 / total-frames=0 / level-idc=51 / high-tier=1 / uhd-bd=0 / ref=4 / no-allow-non-conformance / repeat-headers / annexb / no-aud / no-hrd / info / hash=0 / no-temporal-layers / open-gop / min-keyint=23 / keyint=250 / gop-lookahead=0 / bframes=8 / b-adapt=2 / b-pyramid / bframe-bias=0 / rc-lookahead=80 / lookahead-slices=4 / scenecut=40 / hist-scenecut=0 / radl=0 / no-splice / no-intra-refresh / ctu=64 / min-cu-size=8 / no-rect / no-amp / max-tu-size=32 / tu-inter-depth=1 / tu-intra-depth=1 / limit-tu=0 / rdoq-level=2 / dynamic-rd=0.00 / no-ssim-rd / signhide / no-tskip / nr-intra=0 / nr-inter=0 / no-constrained-intra / no-strong-intra-smoothing / max-merge=3 / limit-refs=3 / limit-modes / me=3 / subme=5 / merange=57 / temporal-mvp / no-frame-dup / no-hme / weightp / no-weightb / no-analyze-src-pics / deblock=0:0 / sao / no-sao-non-deblock / rd=4 / selective-sao=4 / no-early-skip / rskip / no-fast-intra / no-tskip-fast / no-cu-lossless / no-b-intra / no-splitrd-skip / rdpenalty=0 / psy-rd=1.30 / psy-rdoq=2.00 / no-rd-refine / no-lossless / cbqpoffs=0 / crqpoffs=0 / rc=crf / crf=15.0 / qcomp=0.60 / qpstep=4 / stats-write=0 / stats-read=0 / vbv-maxrate=160000 / vbv-bufsize=160000 / vbv-init=0.9 / crf-max=0.0 / crf-min=0.0 / ipratio=1.40 / pbratio=1.30 / aq-mode=4 / aq-strength=1.10 / cutree / zone-count=0 / no-strict-cbr / qg-size=32 / no-rc-grain / qpmax=69 / qpmin=0 / no-const-vbv / sar=1 / overscan=0 / videoformat=5 / range=0 / colorprim=9 / transfer=16 / colormatrix=9 / chromaloc=1 / chromaloc-top=2 / chromaloc-bottom=2 / display-window=0 / master-display=G(13250,34500)B(7500,3000)R(34000,16000)WP(15635,16450)L(40000000,050) / cll=3629,527 / min-luma=0 / max-luma=1023 / log2-max-poc-lsb=8 / vui-timing-info / vui-hrd-info / slices=1 / no-opt-qp-pps / no-opt-ref-list-length-pps / no-multi-pass-opt-rps / scenecut-bias=0.05 / hist-threshold=0.01 / no-opt-cu-delta-qp / no-aq-motion / hdr10 / hdr10-opt / no-dhdr10-opt / no-idr-recovery-sei / analysis-reuse-level=0 / analysis-save-reuse-level=0 / analysis-load-reuse-level=0 / scale-factor=0 / refine-intra=0 / refine-inter=0 / refine-mv=1 / refine-ctu-distortion=0 / no-limit-sao / ctu-info=0 / no-lowpass-dct / refine-analysis-type=0 / copy-pic=1 / max-ausize-factor=1.0 / no-dynamic-refine / no-single-sei / no-hevc-aq / no-svt / no-field / qp-adaptation-range=1.00 / no-scenecut-aware-qpconformance-window-offsets / right=0 / bottom=0 / decoder-max-rate=0

Default                     : Yes

Forced                      : No

Color range                 : Limited

Color primaries             : BT.2020

Transfer characteristics    : PQ

Matrix coefficients         : BT.2020 non-constant

Mastering display color pri : Display P3

Mastering display luminance : min: 0.0050 cd/m2, max: 4000 cd/m2

Maximum Content Light Level : 3629 cd/m2

Maximum Frame-Average Light : 527 cd/m2



Audio #1

ID                          : 2

Format                      : MLP FBA 16-ch

Format/Info                 : Meridian Lossless Packing FBA with 16-channel presentation

Commercial name             : Dolby TrueHD with Dolby Atmos

Codec ID                    : A_TRUEHD

Duration                    : 1 h 51 min

Bit rate mode               : Variable

Bit rate                    : 2 725 kb/s

Maximum bit rate            : 3 879 kb/s

Channel(s)                  : 8 channels

Channel layout              : L R C LFE Ls Rs Lb Rb

Sampling rate               : 48.0 kHz

Frame rate                  : 1 200.000 FPS (40 SPF)

Bit depth                   : 24 bits

Compression mode            : Lossless

Stream size                 : 2.13 GiB (10%)

Language                    : English

Default                     : Yes

Forced                      : No

Number of dynamic objects   : 11

Bed channel count           : 1 channel

Bed channel configuration   : LFE



Audio #2

ID                          : 3

Format                      : AC-3

Format/Info                 : Audio Coding 3

Commercial name             : Dolby Digital

Codec ID                    : A_AC3

Duration                    : 1 h 51 min

Bit rate mode               : Constant

Bit rate                    : 640 kb/s

Channel(s)                  : 6 channels

Channel layout              : L R C LFE Ls Rs

Sampling rate               : 48.0 kHz

Frame rate                  : 31.250 FPS (1536 SPF)

Bit depth                   : 32 bits

Compression mode            : Lossy

Stream size                 : 512 MiB (2%)

Title                       : AC3 5.1

Language                    : English

Service kind                : Complete Main

Default                     : No

Forced                      : No



Audio #3

ID                          : 4

Format                      : AC-3

Format/Info                 : Audio Coding 3

Commercial name             : Dolby Digital

Codec ID                    : A_AC3

Duration                    : 1 h 51 min

Bit rate mode               : Constant

Bit rate                    : 192 kb/s

Channel(s)                  : 2 channels

Channel layout              : L R

Sampling rate               : 48.0 kHz

Frame rate                  : 31.250 FPS (1536 SPF)

Bit depth                   : 32 bits

Compression mode            : Lossy

Stream size                 : 154 MiB (1%)

Title                       : Commentary by Phil Lord/Chris Miller/Jonah Hill/Channing Tatum

Language                    : English

Service kind                : Complete Main

Default                     : No

Forced                      : No



Text #1

ID                          : 5

Format                      : PGS

Codec ID                    : S_HDMV/PGS

Codec ID/Info               : Picture based subtitle format used on BDs/HD-DVDs

Duration                    : 1 h 50 min

Bit rate                    : 53.9 kb/s

Count of elements           : 4028

Stream size                 : 42.7 MiB (0%)

Title                       : English

Language                    : English

Default                     : No

Forced                      : No



Text #2

ID                          : 6

Format                      : PGS

Codec ID                    : S_HDMV/PGS

Codec ID/Info               : Picture based subtitle format used on BDs/HD-DVDs

Duration                    : 1 h 51 min

Bit rate                    : 60.7 kb/s

Count of elements           : 4524

Stream size                 : 48.5 MiB (0%)

Title                       : English (SDH)

Language                    : English

Default                     : No

Forced                      : No



Text #3

ID                          : 7

Format                      : PGS

Codec ID                    : S_HDMV/PGS

Codec ID/Info               : Picture based subtitle format used on BDs/HD-DVDs

Duration                    : 1 h 50 min

Bit rate                    : 27.5 kb/s

Count of elements           : 3876

Stream size                 : 21.8 MiB (0%)

Title                       : Arabic

Language                    : Arabic

Default                     : No

Forced                      : No



Text #4

ID                          : 8

Format                      : PGS

Codec ID                    : S_HDMV/PGS

Codec ID/Info               : Picture based subtitle format used on BDs/HD-DVDs

Duration                    : 1 h 50 min

Bit rate                    : 40.5 kb/s

Count of elements           : 3242

Stream size                 : 32.1 MiB (0%)

Title                       : Bulgarian

Language                    : Bulgarian

Default                     : No

Forced                      : No



Text #5

ID                          : 9

Format                      : PGS

Codec ID                    : S_HDMV/PGS

Codec ID/Info               : Picture based subtitle format used on BDs/HD-DVDs

Duration                    : 1 h 50 min

Bit rate                    : 37.6 kb/s

Count of elements           : 3658

Stream size                 : 29.8 MiB (0%)

Title                       : Chinese (Mandarin Simplified)

Language                    : Chinese

Default                     : No

Forced                      : No



Text #6

ID                          : 10

Format                      : PGS

Codec ID                    : S_HDMV/PGS

Codec ID/Info               : Picture based subtitle format used on BDs/HD-DVDs

Duration                    : 1 h 50 min

Bit rate                    : 34.1 kb/s

Count of elements           : 3647

Stream size                 : 27.0 MiB (0%)

Title                       : Chinese (Mandarin Traditional)

Language                    : Chinese

Default                     : No

Forced                      : No



Text #7

ID                          : 11

Format                      : PGS

Codec ID                    : S_HDMV/PGS

Codec ID/Info               : Picture based subtitle format used on BDs/HD-DVDs

Duration                    : 1 h 50 min

Bit rate                    : 35.7 kb/s

Count of elements           : 3452

Stream size                 : 28.3 MiB (0%)

Title                       : Croatian

Language                    : Croatian

Default                     : No

Forced                      : No



Text #8

ID                          : 12

Format                      : PGS

Codec ID                    : S_HDMV/PGS

Codec ID/Info               : Picture based subtitle format used on BDs/HD-DVDs

Duration                    : 1 h 50 min

Bit rate                    : 36.7 kb/s

Count of elements           : 3626

Stream size                 : 29.1 MiB (0%)

Title                       : Czech

Language                    : Czech

Default                     : No

Forced                      : No



Text #9

ID                          : 13

Format                      : PGS

Codec ID                    : S_HDMV/PGS

Codec ID/Info               : Picture based subtitle format used on BDs/HD-DVDs

Duration                    : 1 h 50 min

Bit rate                    : 40.5 kb/s

Count of elements           : 2786

Stream size                 : 32.1 MiB (0%)

Title                       : Danish

Language                    : Danish

Default                     : No

Forced                      : No



Text #10

ID                          : 14

Format                      : PGS

Codec ID                    : S_HDMV/PGS

Codec ID/Info               : Picture based subtitle format used on BDs/HD-DVDs

Duration                    : 1 h 50 min

Bit rate                    : 38.7 kb/s

Count of elements           : 2732

Stream size                 : 30.7 MiB (0%)

Title                       : Dutch

Language                    : Dutch

Default                     : No

Forced                      : No



Text #11

ID                          : 15

Format                      : PGS

Codec ID                    : S_HDMV/PGS

Codec ID/Info               : Picture based subtitle format used on BDs/HD-DVDs

Duration                    : 1 h 50 min

Bit rate                    : 39.0 kb/s

Count of elements           : 3936

Stream size                 : 31.0 MiB (0%)

Title                       : Estonian

Language                    : Estonian

Default                     : No

Forced                      : No



Text #12

ID                          : 16

Format                      : PGS

Codec ID                    : S_HDMV/PGS

Codec ID/Info               : Picture based subtitle format used on BDs/HD-DVDs

Duration                    : 1 h 50 min

Bit rate                    : 37.4 kb/s

Count of elements           : 3532

Stream size                 : 29.6 MiB (0%)

Title                       : Finnish

Language                    : Finnish

Default                     : No

Forced                      : No



Text #13

ID                          : 17

Format                      : PGS

Codec ID                    : S_HDMV/PGS

Codec ID/Info               : Picture based subtitle format used on BDs/HD-DVDs

Duration                    : 1 h 50 min

Bit rate                    : 34.5 kb/s

Count of elements           : 3478

Stream size                 : 27.4 MiB (0%)

Title                       : French (Canadian)

Language                    : French

Default                     : No

Forced                      : No



Text #14

ID                          : 18

Format                      : PGS

Codec ID                    : S_HDMV/PGS

Codec ID/Info               : Picture based subtitle format used on BDs/HD-DVDs

Duration                    : 1 h 50 min

Bit rate                    : 35.3 kb/s

Count of elements           : 3482

Stream size                 : 28.0 MiB (0%)

Title                       : French (Parisian)

Language                    : French

Default                     : No

Forced                      : No



Text #15

ID                          : 19

Format                      : PGS

Codec ID                    : S_HDMV/PGS

Codec ID/Info               : Picture based subtitle format used on BDs/HD-DVDs

Duration                    : 1 h 50 min

Bit rate                    : 43.8 kb/s

Count of elements           : 4666

Stream size                 : 34.7 MiB (0%)

Title                       : German

Language                    : German

Default                     : No

Forced                      : No



Text #16

ID                          : 20

Format                      : PGS

Codec ID                    : S_HDMV/PGS

Codec ID/Info               : Picture based subtitle format used on BDs/HD-DVDs

Duration                    : 1 h 50 min

Bit rate                    : 47.3 kb/s

Count of elements           : 3640

Stream size                 : 37.5 MiB (0%)

Title                       : Greek

Language                    : Greek

Default                     : No

Forced                      : No



Text #17

ID                          : 21

Format                      : PGS

Codec ID                    : S_HDMV/PGS

Codec ID/Info               : Picture based subtitle format used on BDs/HD-DVDs

Duration                    : 1 h 50 min

Bit rate                    : 34.9 kb/s

Count of elements           : 3880

Stream size                 : 27.6 MiB (0%)

Title                       : Hebrew

Language                    : Hebrew

Default                     : No

Forced                      : No



Text #18

ID                          : 22

Format                      : PGS

Codec ID                    : S_HDMV/PGS

Codec ID/Info               : Picture based subtitle format used on BDs/HD-DVDs

Duration                    : 1 h 50 min

Bit rate                    : 41.9 kb/s

Count of elements           : 4174

Stream size                 : 33.2 MiB (0%)

Title                       : Hindi

Language                    : Hindi

Default                     : No

Forced                      : No



Text #19

ID                          : 23

Format                      : PGS

Codec ID                    : S_HDMV/PGS

Codec ID/Info               : Picture based subtitle format used on BDs/HD-DVDs

Duration                    : 1 h 50 min

Bit rate                    : 49.0 kb/s

Count of elements           : 4164

Stream size                 : 38.8 MiB (0%)

Title                       : Hungarian

Language                    : Hungarian

Default                     : No

Forced                      : No



Text #20

ID                          : 24

Format                      : PGS

Codec ID                    : S_HDMV/PGS

Codec ID/Info               : Picture based subtitle format used on BDs/HD-DVDs

Duration                    : 1 h 50 min

Bit rate                    : 44.4 kb/s

Count of elements           : 3600

Stream size                 : 35.2 MiB (0%)

Title                       : Icelandic

Language                    : Icelandic

Default                     : No

Forced                      : No



Text #21

ID                          : 25

Format                      : PGS

Codec ID                    : S_HDMV/PGS

Codec ID/Info               : Picture based subtitle format used on BDs/HD-DVDs

Duration                    : 1 h 50 min

Bit rate                    : 48.5 kb/s

Count of elements           : 3686

Stream size                 : 38.4 MiB (0%)

Title                       : Indonesian

Language                    : Indonesian

Default                     : No

Forced                      : No



Text #22

ID                          : 26

Format                      : PGS

Codec ID                    : S_HDMV/PGS

Codec ID/Info               : Picture based subtitle format used on BDs/HD-DVDs

Duration                    : 1 h 50 min

Bit rate                    : 50.2 kb/s

Count of elements           : 4154

Stream size                 : 39.7 MiB (0%)

Title                       : Italian

Language                    : Italian

Default                     : No

Forced                      : No



Text #23

ID                          : 27

Format                      : PGS

Codec ID                    : S_HDMV/PGS

Codec ID/Info               : Picture based subtitle format used on BDs/HD-DVDs

Duration                    : 1 h 50 min

Bit rate                    : 38.7 kb/s

Count of elements           : 4174

Stream size                 : 30.7 MiB (0%)

Title                       : Korean

Language                    : Korean

Default                     : No

Forced                      : No



Text #24

ID                          : 28

Format                      : PGS

Codec ID                    : S_HDMV/PGS

Codec ID/Info               : Picture based subtitle format used on BDs/HD-DVDs

Duration                    : 1 h 50 min

Bit rate                    : 38.8 kb/s

Count of elements           : 3910

Stream size                 : 30.8 MiB (0%)

Title                       : Latvian

Language                    : Latvian

Default                     : No

Forced                      : No



Text #25

ID                          : 29

Format                      : PGS

Codec ID                    : S_HDMV/PGS

Codec ID/Info               : Picture based subtitle format used on BDs/HD-DVDs

Duration                    : 1 h 50 min

Bit rate                    : 45.9 kb/s

Count of elements           : 3628

Stream size                 : 36.4 MiB (0%)

Title                       : Lithuanian

Language                    : Lithuanian

Default                     : No

Forced                      : No



Text #26

ID                          : 30

Format                      : PGS

Codec ID                    : S_HDMV/PGS

Codec ID/Info               : Picture based subtitle format used on BDs/HD-DVDs

Duration                    : 1 h 50 min

Bit rate                    : 35.9 kb/s

Count of elements           : 3256

Stream size                 : 28.4 MiB (0%)

Title                       : Norwegian

Language                    : Norwegian

Default                     : No

Forced                      : No



Text #27

ID                          : 31

Format                      : PGS

Codec ID                    : S_HDMV/PGS

Codec ID/Info               : Picture based subtitle format used on BDs/HD-DVDs

Duration                    : 1 h 50 min

Bit rate                    : 37.3 kb/s

Count of elements           : 3446

Stream size                 : 29.5 MiB (0%)

Title                       : Polish

Language                    : Polish

Default                     : No

Forced                      : No



Text #28

ID                          : 32

Format                      : PGS

Codec ID                    : S_HDMV/PGS

Codec ID/Info               : Picture based subtitle format used on BDs/HD-DVDs

Duration                    : 1 h 50 min

Bit rate                    : 41.0 kb/s

Count of elements           : 3572

Stream size                 : 32.5 MiB (0%)

Title                       : Portuguese (Brazilian)

Language                    : Portuguese

Default                     : No

Forced                      : No



Text #29

ID                          : 33

Format                      : PGS

Codec ID                    : S_HDMV/PGS

Codec ID/Info               : Picture based subtitle format used on BDs/HD-DVDs

Duration                    : 1 h 50 min

Bit rate                    : 46.3 kb/s

Count of elements           : 3530

Stream size                 : 36.8 MiB (0%)

Title                       : Portuguese (Iberian)

Language                    : Portuguese

Default                     : No

Forced                      : No



Text #30

ID                          : 34

Format                      : PGS

Codec ID                    : S_HDMV/PGS

Codec ID/Info               : Picture based subtitle format used on BDs/HD-DVDs

Duration                    : 1 h 50 min

Bit rate                    : 40.7 kb/s

Count of elements           : 3126

Stream size                 : 32.3 MiB (0%)

Title                       : Romanian

Language                    : Romanian

Default                     : No

Forced                      : No



Text #31

ID                          : 35

Format                      : PGS

Codec ID                    : S_HDMV/PGS

Codec ID/Info               : Picture based subtitle format used on BDs/HD-DVDs

Duration                    : 1 h 50 min

Bit rate                    : 40.7 kb/s

Count of elements           : 3928

Stream size                 : 32.2 MiB (0%)

Title                       : Russian

Language                    : Russian

Default                     : No

Forced                      : No



Text #32

ID                          : 36

Format                      : PGS

Codec ID                    : S_HDMV/PGS

Codec ID/Info               : Picture based subtitle format used on BDs/HD-DVDs

Duration                    : 1 h 50 min

Bit rate                    : 41.0 kb/s

Count of elements           : 3636

Stream size                 : 32.5 MiB (0%)

Title                       : Serbian

Language                    : Serbian

Default                     : No

Forced                      : No



Text #33

ID                          : 37

Format                      : PGS

Codec ID                    : S_HDMV/PGS

Codec ID/Info               : Picture based subtitle format used on BDs/HD-DVDs

Duration                    : 1 h 50 min

Bit rate                    : 49.5 kb/s

Count of elements           : 4148

Stream size                 : 39.2 MiB (0%)

Title                       : Slovak

Language                    : Slovak

Default                     : No

Forced                      : No



Text #34

ID                          : 38

Format                      : PGS

Codec ID                    : S_HDMV/PGS

Codec ID/Info               : Picture based subtitle format used on BDs/HD-DVDs

Duration                    : 1 h 50 min

Bit rate                    : 33.7 kb/s

Count of elements           : 2900

Stream size                 : 26.7 MiB (0%)

Title                       : Slovenian

Language                    : Slovenian

Default                     : No

Forced                      : No



Text #35

ID                          : 39

Format                      : PGS

Codec ID                    : S_HDMV/PGS

Codec ID/Info               : Picture based subtitle format used on BDs/HD-DVDs

Duration                    : 1 h 50 min

Bit rate                    : 40.5 kb/s

Count of elements           : 3736

Stream size                 : 32.1 MiB (0%)

Title                       : Spanish (Castilian)

Language                    : Spanish

Default                     : No

Forced                      : No



Text #36

ID                          : 40

Format                      : PGS

Codec ID                    : S_HDMV/PGS

Codec ID/Info               : Picture based subtitle format used on BDs/HD-DVDs

Duration                    : 1 h 50 min

Bit rate                    : 43.5 kb/s

Count of elements           : 3972

Stream size                 : 34.5 MiB (0%)

Title                       : Spanish (Latin American)

Language                    : Spanish

Default                     : No

Forced                      : No



Text #37

ID                          : 41

Format                      : PGS

Codec ID                    : S_HDMV/PGS

Codec ID/Info               : Picture based subtitle format used on BDs/HD-DVDs

Duration                    : 1 h 50 min

Bit rate                    : 33.2 kb/s

Count of elements           : 2114

Stream size                 : 26.3 MiB (0%)

Title                       : Swedish

Language                    : Swedish

Default                     : No

Forced                      : No



Text #38

ID                          : 42

Format                      : PGS

Codec ID                    : S_HDMV/PGS

Codec ID/Info               : Picture based subtitle format used on BDs/HD-DVDs

Duration                    : 1 h 50 min

Bit rate                    : 37.5 kb/s

Count of elements           : 3656

Stream size                 : 29.7 MiB (0%)

Title                       : Thai

Language                    : Thai

Default                     : No

Forced                      : No



Text #39

ID                          : 43

Format                      : PGS

Codec ID                    : S_HDMV/PGS

Codec ID/Info               : Picture based subtitle format used on BDs/HD-DVDs

Duration                    : 1 h 50 min

Bit rate                    : 45.2 kb/s

Count of elements           : 3656

Stream size                 : 35.8 MiB (0%)

Title                       : Turkish

Language                    : Turkish

Default                     : No

Forced                      : No



Text #40

ID                          : 44

Format                      : PGS

Codec ID                    : S_HDMV/PGS

Codec ID/Info               : Picture based subtitle format used on BDs/HD-DVDs

Duration                    : 1 h 51 min

Bit rate                    : 77.4 kb/s

Count of elements           : 4686

Stream size                 : 61.9 MiB (0%)

Title                       : English (Commentary)

Language                    : English

Default                     : No

Forced                      : No



Text #41

ID                          : 45

Format                      : PGS

Codec ID                    : S_HDMV/PGS

Codec ID/Info               : Picture based subtitle format used on BDs/HD-DVDs

Duration                    : 1 h 51 min

Bit rate                    : 57.3 kb/s

Count of elements           : 4696

Stream size                 : 45.8 MiB (0%)

Title                       : Chinese (Commentary)

Language                    : Chinese

Default                     : No

Forced                      : No



Text #42

ID                          : 46

Format                      : PGS

Codec ID                    : S_HDMV/PGS

Codec ID/Info               : Picture based subtitle format used on BDs/HD-DVDs

Duration                    : 1 h 51 min

Bit rate                    : 69.6 kb/s

Count of elements           : 4666

Stream size                 : 55.6 MiB (0%)

Title                       : Dutch (Commentary)

Language                    : Dutch

Default                     : No

Forced                      : No



Text #43

ID                          : 47

Format                      : PGS

Codec ID                    : S_HDMV/PGS

Codec ID/Info               : Picture based subtitle format used on BDs/HD-DVDs

Duration                    : 1 h 51 min

Bit rate                    : 64.4 kb/s

Count of elements           : 4696

Stream size                 : 51.5 MiB (0%)

Title                       : French (Commentary)

Language                    : French

Default                     : No

Forced                      : No



Text #44

ID                          : 48

Format                      : PGS

Codec ID                    : S_HDMV/PGS

Codec ID/Info               : Picture based subtitle format used on BDs/HD-DVDs

Duration                    : 1 h 51 min

Bit rate                    : 73.1 kb/s

Count of elements           : 4696

Stream size                 : 58.4 MiB (0%)

Title                       : German (Commentary)

Language                    : German

Default                     : No

Forced                      : No



Text #45

ID                          : 49

Format                      : PGS

Codec ID                    : S_HDMV/PGS

Codec ID/Info               : Picture based subtitle format used on BDs/HD-DVDs

Duration                    : 1 h 51 min

Bit rate                    : 69.4 kb/s

Count of elements           : 4696

Stream size                 : 55.5 MiB (0%)

Title                       : Italian (Commentary)

Language                    : Italian

Default                     : No

Forced                      : No



Text #46

ID                          : 50

Format                      : PGS

Codec ID                    : S_HDMV/PGS

Codec ID/Info               : Picture based subtitle format used on BDs/HD-DVDs

Duration                    : 1 h 51 min

Bit rate                    : 47.4 kb/s

Count of elements           : 4696

Stream size                 : 37.8 MiB (0%)

Title                       : Korean (Commentary)

Language                    : Korean

Default                     : No

Forced                      : No



Text #47

ID                          : 51

Format                      : PGS

Codec ID                    : S_HDMV/PGS

Codec ID/Info               : Picture based subtitle format used on BDs/HD-DVDs

Duration                    : 1 h 51 min

Bit rate                    : 67.6 kb/s

Count of elements           : 4696

Stream size                 : 54.0 MiB (0%)

Title                       : Portuguese (Commentary)

Language                    : Portuguese

Default                     : No

Forced                      : No



Text #48

ID                          : 52

Format                      : PGS

Codec ID                    : S_HDMV/PGS

Codec ID/Info               : Picture based subtitle format used on BDs/HD-DVDs

Duration                    : 1 h 51 min

Bit rate                    : 67.1 kb/s

Count of elements           : 4696

Stream size                 : 53.6 MiB (0%)

Title                       : Spanish (Commentary)

Language                    : Spanish

Default                     : No

Forced                      : No



Text #49

ID                          : 53

Format                      : PGS

Codec ID                    : S_HDMV/PGS

Codec ID/Info               : Picture based subtitle format used on BDs/HD-DVDs

Duration                    : 1 h 51 min

Bit rate                    : 49.2 kb/s

Count of elements           : 4698

Stream size                 : 39.3 MiB (0%)

Title                       : Thai (Commentary)

Language                    : Thai

Default                     : No

Forced                      : No



Menu

00:00:00.000                : :Chapter 1

00:06:21.798                : :Chapter 2

00:13:09.372                : :Chapter 3

00:19:57.363                : :Chapter 4

00:26:32.174                : :Chapter 5

00:31:30.097                : :Chapter 6

00:36:47.247                : :Chapter 7

00:43:49.252                : :Chapter 8

00:51:46.395                : :Chapter 9

00:58:58.410                : :Chapter 10

01:07:30.588                : :Chapter 11

01:16:28.250                : :Chapter 12

01:23:02.603                : :Chapter 13

01:29:51.678                : :Chapter 14

01:35:25.470                : :Chapter 15

01:41:57.194                : :Chapter 16

01:46:04.775                : :Chapter 17



Source Information

General

Unique ID                   : 201941014720346123736866612213532821707 (0x97EC6CBAC6D3E2A41964C4644A0388CB)

Complete name               : 22.Jump.Street.2014.UHD.BluRay.2160p.TrueHD.Atmos.7.1.HEVC.REMUX-FraMeSToR.mkv

Format                      : Matroska

Format version              : Version 4

File size                   : 48.8 GiB

Duration                    : 1 h 51 min

Overall bit rate mode       : Variable

Overall bit rate            : 62.4 Mb/s

Encoded date                : UTC 2020-09-13 14:28:01

Writing application         : mkvmerge v50.0.0 ('Awakenings') 64-bit

Writing library             : libebml v1.4.0 + libmatroska v1.6.2

IMDB                        : tt2294449

TMDB                        : movie/187017



Video

ID                          : 1

Format                      : HEVC

Format/Info                 : High Efficiency Video Coding

Format profile              : Main [email protected]@High

HDR format                  : SMPTE ST 2086, HDR10 compatible

Codec ID                    : V_MPEGH/ISO/HEVC

Duration                    : 1 h 51 min

Bit rate                    : 56.5 Mb/s

Width                       : 3 840 pixels

Height                      : 2 160 pixels

Display aspect ratio        : 16:9

Frame rate mode             : Constant

Frame rate                  : 23.976 (24000/1001) FPS

Color space                 : YUV

Chroma subsampling          : 4:2:0 (Type 2)

Bit depth                   : 10 bits

Bits/(Pixel*Frame)          : 0.284

Stream size                 : 44.2 GiB (91%)

Default                     : Yes

Forced                      : No

Color range                 : Limited

Color primaries             : BT.2020

Transfer characteristics    : PQ

Matrix coefficients         : BT.2020 non-constant

Mastering display color pri : Display P3

Mastering display luminance : min: 0.0050 cd/m2, max: 4000 cd/m2

Maximum Content Light Level : 3629 cd/m2

Maximum Frame-Average Light : 527 cd/m2



Audio #1

ID                          : 2

Format                      : MLP FBA 16-ch

Format/Info                 : Meridian Lossless Packing FBA with 16-channel presentation

Commercial name             : Dolby TrueHD with Dolby Atmos

Codec ID                    : A_TRUEHD

Duration                    : 1 h 51 min

Bit rate mode               : Variable

Bit rate                    : 2 725 kb/s

Maximum bit rate            : 3 879 kb/s

Channel(s)                  : 8 channels

Channel layout              : L R C LFE Ls Rs Lb Rb

Sampling rate               : 48.0 kHz

Frame rate                  : 1 200.000 FPS (40 SPF)

Compression mode            : Lossless

Stream size                 : 2.13 GiB (4%)

Language                    : English

Default                     : Yes

Forced                      : No

Number of dynamic objects   : 11

Bed channel count           : 1 channel

Bed channel configuration   : LFE



Audio #2

ID                          : 3

Format                      : AC-3

Format/Info                 : Audio Coding 3

Commercial name             : Dolby Digital

Codec ID                    : A_AC3

Duration                    : 1 h 51 min

Bit rate mode               : Constant

Bit rate                    : 640 kb/s

Channel(s)                  : 6 channels

Channel layout              : L R C LFE Ls Rs

Sampling rate               : 48.0 kHz

Frame rate                  : 31.250 FPS (1536 SPF)

Compression mode            : Lossy

Stream size                 : 512 MiB (1%)

Title                       : AC3 5.1

Language                    : English

Service kind                : Complete Main

Default                     : No

Forced                      : No



Audio #3

ID                          : 4

Format                      : AC-3

Format/Info                 : Audio Coding 3

Commercial name             : Dolby Digital

Codec ID                    : A_AC3

Duration                    : 1 h 51 min

Bit rate mode               : Constant

Bit rate                    : 192 kb/s

Channel(s)                  : 2 channels

Channel layout              : L R

Sampling rate               : 48.0 kHz

Frame rate                  : 31.250 FPS (1536 SPF)

Compression mode            : Lossy

Stream size                 : 154 MiB (0%)

Title                       : Commentary by Phil Lord/Chris Miller/Jonah Hill/Channing Tatum

Language                    : English

Service kind                : Complete Main

Default                     : No

Forced                      : No



Text #1

ID                          : 5

Format                      : PGS

Codec ID                    : S_HDMV/PGS

Codec ID/Info               : Picture based subtitle format used on BDs/HD-DVDs

Duration                    : 1 h 50 min

Bit rate                    : 53.9 kb/s

Count of elements           : 4028

Stream size                 : 42.7 MiB (0%)

Title                       : English

Language                    : English

Default                     : No

Forced                      : No



Text #2

ID                          : 6

Format                      : PGS

Codec ID                    : S_HDMV/PGS

Codec ID/Info               : Picture based subtitle format used on BDs/HD-DVDs

Duration                    : 1 h 51 min

Bit rate                    : 60.7 kb/s

Count of elements           : 4524

Stream size                 : 48.5 MiB (0%)

Title                       : English (SDH)

Language                    : English

Default                     : No

Forced                      : No



Text #3

ID                          : 7

Format                      : PGS

Codec ID                    : S_HDMV/PGS

Codec ID/Info               : Picture based subtitle format used on BDs/HD-DVDs

Duration                    : 1 h 50 min

Bit rate                    : 27.5 kb/s

Count of elements           : 3876

Stream size                 : 21.8 MiB (0%)

Title                       : Arabic

Language                    : Arabic

Default                     : No

Forced                      : No



Text #4

ID                          : 8

Format                      : PGS

Codec ID                    : S_HDMV/PGS

Codec ID/Info               : Picture based subtitle format used on BDs/HD-DVDs

Duration                    : 1 h 50 min

Bit rate                    : 40.5 kb/s

Count of elements           : 3242

Stream size                 : 32.1 MiB (0%)

Title                       : Bulgarian

Language                    : Bulgarian

Default                     : No

Forced                      : No



Text #5

ID                          : 9

Format                      : PGS

Codec ID                    : S_HDMV/PGS

Codec ID/Info               : Picture based subtitle format used on BDs/HD-DVDs

Duration                    : 1 h 50 min

Bit rate                    : 37.6 kb/s

Count of elements           : 3658

Stream size                 : 29.8 MiB (0%)

Title                       : Chinese (Mandarin Simplified)

Language                    : Chinese

Default                     : No

Forced                      : No



Text #6

ID                          : 10

Format                      : PGS

Codec ID                    : S_HDMV/PGS

Codec ID/Info               : Picture based subtitle format used on BDs/HD-DVDs

Duration                    : 1 h 50 min

Bit rate                    : 34.1 kb/s

Count of elements           : 3647

Stream size                 : 27.0 MiB (0%)

Title                       : Chinese (Mandarin Traditional)

Language                    : Chinese

Default                     : No

Forced                      : No



Text #7

ID                          : 11

Format                      : PGS

Codec ID                    : S_HDMV/PGS

Codec ID/Info               : Picture based subtitle format used on BDs/HD-DVDs

Duration                    : 1 h 50 min

Bit rate                    : 35.7 kb/s

Count of elements           : 3452

Stream size                 : 28.3 MiB (0%)

Title                       : Croatian

Language                    : Croatian

Default                     : No

Forced                      : No



Text #8

ID                          : 12

Format                      : PGS

Codec ID                    : S_HDMV/PGS

Codec ID/Info               : Picture based subtitle format used on BDs/HD-DVDs

Duration                    : 1 h 50 min

Bit rate                    : 36.7 kb/s

Count of elements           : 3626

Stream size                 : 29.1 MiB (0%)

Title                       : Czech

Language                    : Czech

Default                     : No

Forced                      : No



Text #9

ID                          : 13

Format                      : PGS

Codec ID                    : S_HDMV/PGS

Codec ID/Info               : Picture based subtitle format used on BDs/HD-DVDs

Duration                    : 1 h 50 min

Bit rate                    : 40.5 kb/s

Count of elements           : 2786

Stream size                 : 32.1 MiB (0%)

Title                       : Danish

Language                    : Danish

Default                     : No

Forced                      : No



Text #10

ID                          : 14

Format                      : PGS

Codec ID                    : S_HDMV/PGS

Codec ID/Info               : Picture based subtitle format used on BDs/HD-DVDs

Duration                    : 1 h 50 min

Bit rate                    : 38.7 kb/s

Count of elements           : 2732

Stream size                 : 30.7 MiB (0%)

Title                       : Dutch

Language                    : Dutch

Default                     : No

Forced                      : No



Text #11

ID                          : 15

Format                      : PGS

Codec ID                    : S_HDMV/PGS

Codec ID/Info               : Picture based subtitle format used on BDs/HD-DVDs

Duration                    : 1 h 50 min

Bit rate                    : 39.0 kb/s

Count of elements           : 3936

Stream size                 : 31.0 MiB (0%)

Title                       : Estonian

Language                    : Estonian

Default                     : No

Forced                      : No



Text #12

ID                          : 16

Format                      : PGS

Codec ID                    : S_HDMV/PGS

Codec ID/Info               : Picture based subtitle format used on BDs/HD-DVDs

Duration                    : 1 h 50 min

Bit rate                    : 37.4 kb/s

Count of elements           : 3532

Stream size                 : 29.6 MiB (0%)

Title                       : Finnish

Language                    : Finnish

Default                     : No

Forced                      : No



Text #13

ID                          : 17

Format                      : PGS

Codec ID                    : S_HDMV/PGS

Codec ID/Info               : Picture based subtitle format used on BDs/HD-DVDs

Duration                    : 1 h 50 min

Bit rate                    : 34.5 kb/s

Count of elements           : 3478

Stream size                 : 27.4 MiB (0%)

Title                       : French (Canadian)

Language                    : French

Default                     : No

Forced                      : No



Text #14

ID                          : 18

Format                      : PGS

Codec ID                    : S_HDMV/PGS

Codec ID/Info               : Picture based subtitle format used on BDs/HD-DVDs

Duration                    : 1 h 50 min

Bit rate                    : 35.3 kb/s

Count of elements           : 3482

Stream size                 : 28.0 MiB (0%)

Title                       : French (Parisian)

Language                    : French

Default                     : No

Forced                      : No



Text #15

ID                          : 19

Format                      : PGS

Codec ID                    : S_HDMV/PGS

Codec ID/Info               : Picture based subtitle format used on BDs/HD-DVDs

Duration                    : 1 h 50 min

Bit rate                    : 43.8 kb/s

Count of elements           : 4666

Stream size                 : 34.7 MiB (0%)

Title                       : German

Language                    : German

Default                     : No

Forced                      : No



Text #16

ID                          : 20

Format                      : PGS

Codec ID                    : S_HDMV/PGS

Codec ID/Info               : Picture based subtitle format used on BDs/HD-DVDs

Duration                    : 1 h 50 min

Bit rate                    : 47.3 kb/s

Count of elements           : 3640

Stream size                 : 37.5 MiB (0%)

Title                       : Greek

Language                    : Greek

Default                     : No

Forced                      : No



Text #17

ID                          : 21

Format                      : PGS

Codec ID                    : S_HDMV/PGS

Codec ID/Info               : Picture based subtitle format used on BDs/HD-DVDs

Duration                    : 1 h 50 min

Bit rate                    : 34.9 kb/s

Count of elements           : 3880

Stream size                 : 27.6 MiB (0%)

Title                       : Hebrew

Language                    : Hebrew

Default                     : No

Forced                      : No



Text #18

ID                          : 22

Format                      : PGS

Codec ID                    : S_HDMV/PGS

Codec ID/Info               : Picture based subtitle format used on BDs/HD-DVDs

Duration                    : 1 h 50 min

Bit rate                    : 41.9 kb/s

Count of elements           : 4174

Stream size                 : 33.2 MiB (0%)

Title                       : Hindi

Language                    : Hindi

Default                     : No

Forced                      : No



Text #19

ID                          : 23

Format                      : PGS

Codec ID                    : S_HDMV/PGS

Codec ID/Info               : Picture based subtitle format used on BDs/HD-DVDs

Duration                    : 1 h 50 min

Bit rate                    : 49.0 kb/s

Count of elements           : 4164

Stream size                 : 38.8 MiB (0%)

Title                       : Hungarian

Language                    : Hungarian

Default                     : No

Forced                      : No



Text #20

ID                          : 24

Format                      : PGS

Codec ID                    : S_HDMV/PGS

Codec ID/Info               : Picture based subtitle format used on BDs/HD-DVDs

Duration                    : 1 h 50 min

Bit rate                    : 44.4 kb/s

Count of elements           : 3600

Stream size                 : 35.2 MiB (0%)

Title                       : Icelandic

Language                    : Icelandic

Default                     : No

Forced                      : No



Text #21

ID                          : 25

Format                      : PGS

Codec ID                    : S_HDMV/PGS

Codec ID/Info               : Picture based subtitle format used on BDs/HD-DVDs

Duration                    : 1 h 50 min

Bit rate                    : 48.5 kb/s

Count of elements           : 3686

Stream size                 : 38.4 MiB (0%)

Title                       : Indonesian

Language                    : Indonesian

Default                     : No

Forced                      : No



Text #22

ID                          : 26

Format                      : PGS

Codec ID                    : S_HDMV/PGS

Codec ID/Info               : Picture based subtitle format used on BDs/HD-DVDs

Duration                    : 1 h 50 min

Bit rate                    : 50.2 kb/s

Count of elements           : 4154

Stream size                 : 39.7 MiB (0%)

Title                       : Italian

Language                    : Italian

Default                     : No

Forced                      : No



Text #23

ID                          : 27

Format                      : PGS

Codec ID                    : S_HDMV/PGS

Codec ID/Info               : Picture based subtitle format used on BDs/HD-DVDs

Duration                    : 1 h 50 min

Bit rate                    : 38.7 kb/s

Count of elements           : 4174

Stream size                 : 30.7 MiB (0%)

Title                       : Korean

Language                    : Korean

Default                     : No

Forced                      : No



Text #24

ID                          : 28

Format                      : PGS

Codec ID                    : S_HDMV/PGS

Codec ID/Info               : Picture based subtitle format used on BDs/HD-DVDs

Duration                    : 1 h 50 min

Bit rate                    : 38.8 kb/s

Count of elements           : 3910

Stream size                 : 30.8 MiB (0%)

Title                       : Latvian

Language                    : Latvian

Default                     : No

Forced                      : No



Text #25

ID                          : 29

Format                      : PGS

Codec ID                    : S_HDMV/PGS

Codec ID/Info               : Picture based subtitle format used on BDs/HD-DVDs

Duration                    : 1 h 50 min

Bit rate                    : 45.9 kb/s

Count of elements           : 3628

Stream size                 : 36.4 MiB (0%)

Title                       : Lithuanian

Language                    : Lithuanian

Default                     : No

Forced                      : No



Text #26

ID                          : 30

Format                      : PGS

Codec ID                    : S_HDMV/PGS

Codec ID/Info               : Picture based subtitle format used on BDs/HD-DVDs

Duration                    : 1 h 50 min

Bit rate                    : 35.9 kb/s

Count of elements           : 3256

Stream size                 : 28.4 MiB (0%)

Title                       : Norwegian

Language                    : Norwegian

Default                     : No

Forced                      : No



Text #27

ID                          : 31

Format                      : PGS

Codec ID                    : S_HDMV/PGS

Codec ID/Info               : Picture based subtitle format used on BDs/HD-DVDs

Duration                    : 1 h 50 min

Bit rate                    : 37.3 kb/s

Count of elements           : 3446

Stream size                 : 29.5 MiB (0%)

Title                       : Polish

Language                    : Polish

Default                     : No

Forced                      : No



Text #28

ID                          : 32

Format                      : PGS

Codec ID                    : S_HDMV/PGS

Codec ID/Info               : Picture based subtitle format used on BDs/HD-DVDs

Duration                    : 1 h 50 min

Bit rate                    : 41.0 kb/s

Count of elements           : 3572

Stream size                 : 32.5 MiB (0%)

Title                       : Portuguese (Brazilian)

Language                    : Portuguese

Default                     : No

Forced                      : No



Text #29

ID                          : 33

Format                      : PGS

Codec ID                    : S_HDMV/PGS

Codec ID/Info               : Picture based subtitle format used on BDs/HD-DVDs

Duration                    : 1 h 50 min

Bit rate                    : 46.3 kb/s

Count of elements           : 3530

Stream size                 : 36.8 MiB (0%)

Title                       : Portuguese (Iberian)

Language                    : Portuguese

Default                     : No

Forced                      : No



Text #30

ID                          : 34

Format                      : PGS

Codec ID                    : S_HDMV/PGS

Codec ID/Info               : Picture based subtitle format used on BDs/HD-DVDs

Duration                    : 1 h 50 min

Bit rate                    : 40.7 kb/s

Count of elements           : 3126

Stream size                 : 32.3 MiB (0%)

Title                       : Romanian

Language                    : Romanian

Default                     : No

Forced                      : No



Text #31

ID                          : 35

Format                      : PGS

Codec ID                    : S_HDMV/PGS

Codec ID/Info               : Picture based subtitle format used on BDs/HD-DVDs

Duration                    : 1 h 50 min

Bit rate                    : 40.7 kb/s

Count of elements           : 3928

Stream size                 : 32.2 MiB (0%)

Title                       : Russian

Language                    : Russian

Default                     : No

Forced                      : No



Text #32

ID                          : 36

Format                      : PGS

Codec ID                    : S_HDMV/PGS

Codec ID/Info               : Picture based subtitle format used on BDs/HD-DVDs

Duration                    : 1 h 50 min

Bit rate                    : 41.0 kb/s

Count of elements           : 3636

Stream size                 : 32.5 MiB (0%)

Title                       : Serbian

Language                    : Serbian

Default                     : No

Forced                      : No



Text #33

ID                          : 37

Format                      : PGS

Codec ID                    : S_HDMV/PGS

Codec ID/Info               : Picture based subtitle format used on BDs/HD-DVDs

Duration                    : 1 h 50 min

Bit rate                    : 49.5 kb/s

Count of elements           : 4148

Stream size                 : 39.2 MiB (0%)

Title                       : Slovak

Language                    : Slovak

Default                     : No

Forced                      : No



Text #34

ID                          : 38

Format                      : PGS

Codec ID                    : S_HDMV/PGS

Codec ID/Info               : Picture based subtitle format used on BDs/HD-DVDs

Duration                    : 1 h 50 min

Bit rate                    : 33.7 kb/s

Count of elements           : 2900

Stream size                 : 26.7 MiB (0%)

Title                       : Slovenian

Language                    : Slovenian

Default                     : No

Forced                      : No



Text #35

ID                          : 39

Format                      : PGS

Codec ID                    : S_HDMV/PGS

Codec ID/Info               : Picture based subtitle format used on BDs/HD-DVDs

Duration                    : 1 h 50 min

Bit rate                    : 40.5 kb/s

Count of elements           : 3736

Stream size                 : 32.1 MiB (0%)

Title                       : Spanish (Castilian)

Language                    : Spanish

Default                     : No

Forced                      : No



Text #36

ID                          : 40

Format                      : PGS

Codec ID                    : S_HDMV/PGS

Codec ID/Info               : Picture based subtitle format used on BDs/HD-DVDs

Duration                    : 1 h 50 min

Bit rate                    : 43.5 kb/s

Count of elements           : 3972

Stream size                 : 34.5 MiB (0%)

Title                       : Spanish (Latin American)

Language                    : Spanish

Default                     : No

Forced                      : No



Text #37

ID                          : 41

Format                      : PGS

Codec ID                    : S_HDMV/PGS

Codec ID/Info               : Picture based subtitle format used on BDs/HD-DVDs

Duration                    : 1 h 50 min

Bit rate                    : 33.2 kb/s

Count of elements           : 2114

Stream size                 : 26.3 MiB (0%)

Title                       : Swedish

Language                    : Swedish

Default                     : No

Forced                      : No



Text #38

ID                          : 42

Format                      : PGS

Codec ID                    : S_HDMV/PGS

Codec ID/Info               : Picture based subtitle format used on BDs/HD-DVDs

Duration                    : 1 h 50 min

Bit rate                    : 37.5 kb/s

Count of elements           : 3656

Stream size                 : 29.7 MiB (0%)

Title                       : Thai

Language                    : Thai

Default                     : No

Forced                      : No



Text #39

ID                          : 43

Format                      : PGS

Codec ID                    : S_HDMV/PGS

Codec ID/Info               : Picture based subtitle format used on BDs/HD-DVDs

Duration                    : 1 h 50 min

Bit rate                    : 45.2 kb/s

Count of elements           : 3656

Stream size                 : 35.8 MiB (0%)

Title                       : Turkish

Language                    : Turkish

Default                     : No

Forced                      : No



Text #40

ID                          : 44

Format                      : PGS

Codec ID                    : S_HDMV/PGS

Codec ID/Info               : Picture based subtitle format used on BDs/HD-DVDs

Duration                    : 1 h 51 min

Bit rate                    : 77.4 kb/s

Count of elements           : 4686

Stream size                 : 61.9 MiB (0%)

Title                       : English (Commentary)

Language                    : English

Default                     : No

Forced                      : No



Text #41

ID                          : 45

Format                      : PGS

Codec ID                    : S_HDMV/PGS

Codec ID/Info               : Picture based subtitle format used on BDs/HD-DVDs

Duration                    : 1 h 51 min

Bit rate                    : 57.3 kb/s

Count of elements           : 4696

Stream size                 : 45.8 MiB (0%)

Title                       : Chinese (Commentary)

Language                    : Chinese

Default                     : No

Forced                      : No



Text #42

ID                          : 46

Format                      : PGS

Codec ID                    : S_HDMV/PGS

Codec ID/Info               : Picture based subtitle format used on BDs/HD-DVDs

Duration                    : 1 h 51 min

Bit rate                    : 69.6 kb/s

Count of elements           : 4666

Stream size                 : 55.6 MiB (0%)

Title                       : Dutch (Commentary)

Language                    : Dutch

Default                     : No

Forced                      : No



Text #43

ID                          : 47

Format                      : PGS

Codec ID                    : S_HDMV/PGS

Codec ID/Info               : Picture based subtitle format used on BDs/HD-DVDs

Duration                    : 1 h 51 min

Bit rate                    : 64.4 kb/s

Count of elements           : 4696

Stream size                 : 51.5 MiB (0%)

Title                       : French (Commentary)

Language                    : French

Default                     : No

Forced                      : No



Text #44

ID                          : 48

Format                      : PGS

Codec ID                    : S_HDMV/PGS

Codec ID/Info               : Picture based subtitle format used on BDs/HD-DVDs

Duration                    : 1 h 51 min

Bit rate                    : 73.1 kb/s

Count of elements           : 4696

Stream size                 : 58.4 MiB (0%)

Title                       : German (Commentary)

Language                    : German

Default                     : No

Forced                      : No



Text #45

ID                          : 49

Format                      : PGS

Codec ID                    : S_HDMV/PGS

Codec ID/Info               : Picture based subtitle format used on BDs/HD-DVDs

Duration                    : 1 h 51 min

Bit rate                    : 69.4 kb/s

Count of elements           : 4696

Stream size                 : 55.5 MiB (0%)

Title                       : Italian (Commentary)

Language                    : Italian

Default                     : No

Forced                      : No



Text #46

ID                          : 50

Format                      : PGS

Codec ID                    : S_HDMV/PGS

Codec ID/Info               : Picture based subtitle format used on BDs/HD-DVDs

Duration                    : 1 h 51 min

Bit rate                    : 47.4 kb/s

Count of elements           : 4696

Stream size                 : 37.8 MiB (0%)

Title                       : Korean (Commentary)

Language                    : Korean

Default                     : No

Forced                      : No



Text #47

ID                          : 51

Format                      : PGS

Codec ID                    : S_HDMV/PGS

Codec ID/Info               : Picture based subtitle format used on BDs/HD-DVDs

Duration                    : 1 h 51 min

Bit rate                    : 67.6 kb/s

Count of elements           : 4696

Stream size                 : 54.0 MiB (0%)

Title                       : Portuguese (Commentary)

Language                    : Portuguese

Default                     : No

Forced                      : No



Text #48

ID                          : 52

Format                      : PGS

Codec ID                    : S_HDMV/PGS

Codec ID/Info               : Picture based subtitle format used on BDs/HD-DVDs

Duration                    : 1 h 51 min

Bit rate                    : 67.1 kb/s

Count of elements           : 4696

Stream size                 : 53.6 MiB (0%)

Title                       : Spanish (Commentary)

Language                    : Spanish

Default                     : No

Forced                      : No



Text #49

ID                          : 53

Format                      : PGS

Codec ID                    : S_HDMV/PGS

Codec ID/Info               : Picture based subtitle format used on BDs/HD-DVDs

Duration                    : 1 h 51 min

Bit rate                    : 49.2 kb/s

Count of elements           : 4698

Stream size                 : 39.3 MiB (0%)

Title                       : Thai (Commentary)

Language                    : Thai

Default                     : No

Forced                      : No



Menu

00:00:00.000                : en:Chapter 1

00:06:21.798                : en:Chapter 2

00:13:09.372                : en:Chapter 3

00:19:57.363                : en:Chapter 4

00:26:32.174                : en:Chapter 5

00:31:30.097                : en:Chapter 6

00:36:47.247                : en:Chapter 7

00:43:49.252                : en:Chapter 8

00:51:46.395                : en:Chapter 9

00:58:58.410                : en:Chapter 10

01:07:30.588                : en:Chapter 11

01:16:28.250                : en:Chapter 12

01:23:02.603                : en:Chapter 13

01:29:51.678                : en:Chapter 14

01:35:25.470                : en:Chapter 15

01:41:57.194                : en:Chapter 16

01:46:04.775                : en:Chapter 17

Discussion

Comments 0

Post Your Comment

Files in this torrent

FILENAMESIZE
22 Jump Street (2014) (2160p HDR BDRip x265 10bit TrueHD 7.1 Atmos + AC3 5.1 - r0b0t) [TAoE].mkv21.3 GB

Alternative Torrents for 'Jump Street p HDR bit TrueHD Atmos rbt'.

TORRENT NAMEADDEDSIZESEEDSPEERSHEALTH
Yesterday2.7 GB46025810
11/20/20201.3 GB3317570
11/13/20202.3 GB32341175
11/20/20202.6 GB29371409
Yesterday2.7 GB28582301
11/6/20202.5 GB27131281
10/30/20203.4 GB1963736
11/20/20203.5 GB1291534
11/20/20202 GB1244270
Yesterday1.6 GB1239261
Yesterday1.6 GB1046339
Yesterday1.6 GB804828
Yesterday2.7 GB697480
11/13/20203.2 GB66290
Yesterday1.6 GB6461065