London Confidential (2020) Zee 5 Hindi 1080p WEBRip X264 AAC ESub

Torrent Details


London Confidential (2020) Zee 5 Hindi 1080p WEBRip x264 AAC  ESub

NAME
London Confidential (2020) Zee 5 Hindi 1080p WEBRip x264 AAC ESub.torrent
CATEGORY
Movies
INFOHASH
f56b19de2d322f963398cc84a10626ece501be49
SIZE
1.1 GB in 1 file
ADDED
Uploaded on 18-09-2020 by our crawler pet called "Spidey".
SWARM
0 seeders & 0 peers
RATING
No votes yet.

Please login to vote for this torrent.


Description

Plot:
Join RAW agents in London as they try to uncover the mole responsible for a series of brutal killings
before they can find the last piece of evidence against China in its role of spreading a new pandemic.

Starring
Mouni Roy, Purab Kohli, Kulraj Randhawa, and Sagar Arya.

Director
Kanwal Sethi.


Format : Matroska
Format version : Version 4
File size : 1.14 GiB
Duration : 1 h 17 min
Overall bit rate mode : Variable
Overall bit rate : 2 106 kb/s

Video
ID : 1
Format : AVC
Format/Info : Advanced Video Codec
Format profile : [email protected]
Format settings : CABAC / 4 Ref Frames
Format settings, CABAC : Yes
Format settings, Reference frames : 4 frames
Format settings, GOP : M=3, N=25
Codec ID : V_MPEG4/ISO/AVC
Duration : 1 h 17 min
Bit rate mode : Variable
Bit rate : 2 010 kb/s
Maximum bit rate : 3 805 kb/s
Width : 1 920 pixels
Height : 1 080 pixels
Display aspect ratio : 16:9
Frame rate mode : Constant
Frame rate : 25.000 FPS
Color space : YUV
Chroma subsampling : 4:2:0
Bit depth : 8 bits
Scan type : Progressive
Bits/(Pixel*Frame) : 0.039
Stream size : 1.09 GiB (95%)


Audio
ID : 2
Format : AAC LC
Format/Info : Advanced Audio Codec Low Complexity
Codec ID : A_AAC-2
Duration : 1 h 17 min
Bit rate : 93.6 kb/s
Channel(s) : 2 channels
Channel layout : L R
Sampling rate : 44.1 kHz
Frame rate : 43.066 FPS (1024 SPF)
Compression mode : Lossy
Stream size : 51.9 MiB (4%)
Language : Hindi
Default : Yes
Forced : No

Text
ID : 3
Format : UTF-8
Codec ID : S_TEXT/UTF8
Codec ID/Info : UTF-8 Plain Text
Duration : 1 h 13 min
Bit rate : 50 b/s
Count of elements : 881
Stream size : 27.1 KiB (0%)
Language : English
Default : No
Forced : No

Discussion

Comments 0

Post Your Comment

Files in this torrent

FILENAMESIZE
London Confidential (2020) Zee 5 Hindi 1080p WEBRip x264 AAC. ESub.mkv1.1 GB

Alternative Torrents for 'London Confidential Zee Hindi AAC ESub'.

TORRENT NAMEADDEDSIZESEEDSPEERSHEALTH
9/18/20201.1 GB00