Holly Slept Over 2020 X264 720p Esub AmaZoNe Dual Audio English Hindi Telugu Tamil GOPI SAHI

Torrent Details


Holly Slept Over 2020 x264 720p Esub AmaZoNe Dual Audio English Hindi Telugu Tamil GOPI SAHI

NAME
Holly Slept Over 2020 x264 720p Esub AmaZoNe Dual Audio English Hindi Telugu Tamil GOPI SAHI.torrent
CATEGORY
Movies
INFOHASH
d7c2dd553da012302e84ac0c020b11a5166b4149
SIZE
807 MB in 1 file
ADDED
Uploaded on 19-09-2020 by our crawler pet called "Spidey".
SWARM
0 seeders & 0 peers
RATING
No votes yet.

Please login to vote for this torrent.


Description

https://www.jattrules.com/







This unconventional comedy follows the relationship struggles of a married couple trying to conceive, their friends who have lost their spark, and the tension that ensues when an old college roommate stays over for the weekend.



EN

Director:



Joshua Friedlander

Writer:



Joshua Friedlander

Stars:



Nathalie Emmanuel, Kimberly G. Grader, Erinn Hayes | See full cast & crew »



 



5.4/10



825



 



Directed by

    



Joshua Friedlander



Produced by

    



    Jeremy Garelick

    Mickey Liddell

    Pete Shilaimon

    Will Phelps

    Glen Trotiner

    Jason Blumenfeld



Written by

    



Joshua Friedlander



Starring

    



    Josh Lawson

    Nathalie Emmanuel

    Britt Lower

    Erinn Hayes

    Ron Livingston



Music by

    



Jason Nesmith



Cinematography

    



John W. Rutland



Edited by

    



Frank Longo



Production



company

    



American Indie



Distributed by

    



Sony Pictures Home Entertainment



Release date

    



    March 3, 2020 (United States)



Running time

    



87 minutes



Country

    



United States



Language

    



English





Holly Slept Over 2020 x264 720p Esub AmaZoNe Dual Audio English Hindi Telugu Tamil GOPI SAHI





Format                         : Matroska



Format version                 : Version 4



File size                      : 807 MiB



Duration                       : 1 h 27 min



Overall bit rate               : 1 286 kb/s



Movie name                     : Holly Slept Over 2020 GOPI SAHI



Encoded date                   : UTC 2020-09-18 14:11:40





Video



ID                             : 1



Format                         : AVC



Format/Info                    : Advanced Video Codec



Format profile                 : [email protected]



Format settings                : CABAC / 5 Ref Frames



Format settings, CABAC         : Yes



Format settings, Reference fra : 5 frames



Codec ID                       : V_MPEG4/ISO/AVC



Duration                       : 1 h 27 min



Bit rate                       : 899 kb/s



Width                          : 1 280 pixels



Height                         : 530 pixels



Display aspect ratio           : 2.40:1



Frame rate mode                : Constant



Frame rate                     : 23.976 (24000/1001) FPS



Color space                    : YUV



Chroma subsampling             : 4:2:0



Bit depth                      : 8 bits



Scan type                      : Progressive



Bits/(Pixel*Frame)             : 0.055



Stream size                    : 563 MiB (70%)



Title                          : GOPI SAHI



Writing library                : x264 core 157 r2935 545de2f





Audio #1



ID                             : 2



Format                         : AAC LC



Format/Info                    : Advanced Audio Codec Low Complexity



Codec ID                       : A_AAC-2



Duration                       : 1 h 27 min



Bit rate                       : 96.0 kb/s



Channel(s)                     : 2 channels



Channel layout                 : L R



Sampling rate                  : 48.0 kHz



Frame rate                     : 46.875 FPS (1024 SPF)



Compression mode               : Lossy



Delay relative to video        : -63 ms



Stream size                    : 60.3 MiB (7%)



Title                          : GOPI SAHI



Language                       : Hindi



Default                        : Yes



Forced                         : No





Audio #2



ID                             : 3



Format                         : AAC LC



Format/Info                    : Advanced Audio Codec Low Complexity



Codec ID                       : A_AAC-2



Duration                       : 1 h 27 min



Bit rate                       : 96.0 kb/s



Channel(s)                     : 2 channels



Channel layout                 : L R



Sampling rate                  : 48.0 kHz



Frame rate                     : 46.875 FPS (1024 SPF)



Compression mode               : Lossy



Delay relative to video        : -63 ms



Stream size                    : 60.3 MiB (7%)



Title                          : GOPI SAHI



Language                       : English



Default                        : No



Forced                         : No





Audio #3



ID                             : 4



Format                         : AAC LC



Format/Info                    : Advanced Audio Codec Low Complexity



Codec ID                       : A_AAC-2



Duration                       : 1 h 27 min



Bit rate                       : 96.0 kb/s



Channel(s)                     : 2 channels



Channel layout                 : L R



Sampling rate                  : 48.0 kHz



Frame rate                     : 46.875 FPS (1024 SPF)



Compression mode               : Lossy



Delay relative to video        : -63 ms



Stream size                    : 60.3 MiB (7%)



Title                          : GOPI SAHI



Language                       : Tamil



Default                        : No



Forced                         : No





Audio #4



ID                             : 5



Format                         : AAC LC



Format/Info                    : Advanced Audio Codec Low Complexity



Codec ID                       : A_AAC-2



Duration                       : 1 h 27 min



Bit rate                       : 96.0 kb/s



Channel(s)                     : 2 channels



Channel layout                 : L R



Sampling rate                  : 48.0 kHz



Frame rate                     : 46.875 FPS (1024 SPF)



Compression mode               : Lossy



Delay relative to video        : -63 ms



Stream size                    : 60.3 MiB (7%)



Title                          : GOPI SAHI



Language                       : Telugu



Default                        : No



Forced                         : No





Text



ID                             : 6



Format                         : UTF-8



Codec ID                       : S_TEXT/UTF8



Codec ID/Info                  : UTF-8 Plain Text



Duration                       : 1 h 27 min



Bit rate                       : 88 b/s



Count of elements              : 1752



Stream size                    : 56.7 KiB (0%)



Title                          : GOPI SAHI



Language                       : English



Default                        : Yes



Forced                         : No











Discussion

Comments 0

Post Your Comment

Files in this torrent

FILENAMESIZE
Holly Slept Over 2020 x264 720p Esub AmaZoNe Dual Audio English Hindi Telugu Tamil GOPI SAHI.mkv807.1 MB

Alternative Torrents for 'Holly Slept Over Esub AmaZoNe Dual Audio English Hindi Telugu Tamil GOPI SAHI'.

TORRENT NAMEADDEDSIZESEEDSPEERSHEALTH
9/19/2020807 MB00