The Devil All The Time 2020 WEB-DL 1080p SeleZen

Torrent Details

The Devil All The Time 2020 WEB-DL 1080p<span style=color:#fc9c6d> seleZen</span>
The Devil All The Time 2020 WEB-DL 1080p<span style=color:#fc9c6d> seleZen</span>

NAME
The Devil All The Time 2020 WEB-DL 1080p seleZen.torrent
CATEGORY
Movies
INFOHASH
9fc0cac69e2bcbdc42d5febf17c6169651e0a175
SIZE
8.4 GB in 1 file
ADDED
Uploaded on 20-09-2020 by our crawler pet called "Spidey".
SWARM
0 seeders & 0 peers
RATING
No votes yet.

Please login to vote for this torrent.


Description

Информация о фильме

Название: Дьявол всегда здесь

Оригинальное название: The Devil All the Time

Год выхода: 2020

Жанр: Триллер, драма, криминал

Режиссер: Антонио Кампос

В ролях: Том Холланд (II), Роберт Паттинсон, Билл Скарсгард, Хейли Беннетт, Райли Кио, Гарри Меллинг, Себастьян Стэн, Миа Васиковска, Элайза Сканлен, Джейсон Кларк







О фильме: Город Нокерстифф, штат Огайо. Безутешный Уиллард Рассел готов на всё, лишь бы спасти умирающую жену. Он начинает молить небеса о спасении, забыв об остальном мире, в результате чего его сын Элвин вынужден превратиться из забитого школьника в решительного мужчину, способного взять дело в свои руки.



Страна: США

Студия: Nine Stories Productions

Продолжительность: 02:18:53

Перевод: Профессиональный многоголосый | HDRezka Studio



Качество: WEB-DL 1080p

Видео: MPEG-4 AVC, 1920x1080, 7500 Kbit/s, 24.000 fps

Аудио #01: 48 kHz, AC3, 5.1, 448 Kbps | HDRezka Studio | RUS |

Аудио #02: 48 kHz, E-AC3+Atmos, 5.1, 768 Kbps | Оригинал | ENG |

Субтитры: Русские (Forced, full), английские







MIGeneral

Unique ID : 141704164523529327200093746007247813963 (0x6A9B3AB7FE70007C7A0D9672029DFD4B)

Complete name : D:Video111The.Devil.All.The.Time.2020.WEB-DL.1080p.seleZen.mkv

Format : Matroska

Format version : Version 4

File size : 8.38 GiB

Duration : 2 h 18 min

Overall bit rate mode : Variable

Overall bit rate : 8 642 kb/s

Movie name : The Devil All The Time 2020 from селезень

Encoded date : UTC 2020-09-20 03:56:19

Writing application : mkvmerge v40.0.0 ('Old Town Road + Pony') 64-bit

Writing library : libebml v1.3.9 + libmatroska v1.5.2



Video

ID : 1

Format : AVC

Format/Info : Advanced Video Codec

Format profile : [email protected]

Format settings : CABAC / 3 Ref Frames

Format settings, CABAC : Yes

Format settings, Reference : 3 frames

Codec ID : V_MPEG4/ISO/AVC

Duration : 2 h 18 min

Bit rate mode : Variable

Bit rate : 7 500 kb/s

Maximum bit rate : 11.2 Mb/s

Width : 1 920 pixels

Height : 1 080 pixels

Display aspect ratio : 16:9

Frame rate mode : Constant

Frame rate : 24.000 FPS

Color space : YUV

Chroma subsampling : 4:2:0

Bit depth : 8 bits

Scan type : Progressive

Bits/(Pixel*Frame) : 0.151

Stream size : 7.20 GiB (86%)

Writing library : x264 core 148 r2722 1b0121b

Encoding settings : cabac=1 / ref=3 / deblock=1:0:0 / analyse=0x1:0x111 / me=umh / subme=10 / psy=1 / psy_rd=1.00:0.00 / mixed_ref=1 / me_range=24 / chroma_me=1 / trellis=2 / 8x8dct=0 / cqm=0 / deadzone=21,11 / fast_pskip=1 / chroma_qp_offset=-2 / threads=6 / lookahead_threads=1 / sliced_threads=0 / nr=0 / decimate=1 / interlaced=0 / bluray_compat=0 / stitchable=1 / constrained_intra=0 / bframes=2 / b_pyramid=0 / b_adapt=2 / b_bias=0 / direct=3 / weightb=1 / open_gop=0 / weightp=2 / keyint=250 / keyint_min=24 / scenecut=0 / intra_refresh=0 / rc_lookahead=48 / rc=2pass / mbtree=1 / bitrate=7500 / ratetol=1.0 / qcomp=0.50 / qpmin=6 / qpmax=51 / qpstep=4 / cplxblur=20.0 / qblur=0.5 / vbv_maxrate=11250 / vbv_bufsize=15000 / nal_hrd=vbr / filler=0 / ip_ratio=1.40 / aq=1:1.00

Language : English

Default : Yes

Forced : No



Audio #1

ID : 2

Format : AC-3

Format/Info : Audio Coding 3

Commercial name : Dolby Digital

Codec ID : A_AC3

Duration : 2 h 18 min

Bit rate mode : Constant

Bit rate : 448 kb/s

Channel(s) : 6 channels

Channel layout : L R C LFE Ls Rs

Sampling rate : 48.0 kHz

Frame rate : 31.250 FPS (1536 SPF)

Compression mode : Lossy

Stream size : 445 MiB (5%)

Title : MVO [HDRezka Studio]

Language : Russian

Service kind : Complete Main

Default : Yes

Forced : Yes



Audio #2

ID : 3

Format : E-AC-3 JOC

Format/Info : Enhanced AC-3 with Joint Object Coding

Commercial name : Dolby Digital Plus with Dolby Atmos

Codec ID : A_EAC3

Duration : 2 h 18 min

Bit rate mode : Constant

Bit rate : 768 kb/s

Channel(s) : 6 channels

Channel layout : L R C LFE Ls Rs

Sampling rate : 48.0 kHz

Frame rate : 31.250 FPS (1536 SPF)

Compression mode : Lossy

Stream size : 763 MiB (9%)

Title : Original

Language : English

Service kind : Complete Main

Default : No

Forced : No

Complexity index : 16

Number of dynamic objects : 15

Bed channel count : 1 channel

Bed channel configuration : LFE



Text #1

ID : 4

Format : UTF-8

Codec ID : S_TEXT/UTF8

Codec ID/Info : UTF-8 Plain Text

Duration : 2 h 10 min

Bit rate : 2 b/s

Count of elements : 39

Stream size : 1.96 KiB (0%)

Title : Forced

Language : Russian

Default : Yes

Forced : Yes



Text #2

ID : 5

Format : UTF-8

Codec ID : S_TEXT/UTF8

Codec ID/Info : UTF-8 Plain Text

Duration : 2 h 11 min

Bit rate : 79 b/s

Count of elements : 1648

Stream size : 76.7 KiB (0%)

Title : Full

Language : Russian

Default : No

Forced : No



Text #3

ID : 6

Format : UTF-8

Codec ID : S_TEXT/UTF8

Codec ID/Info : UTF-8 Plain Text

Duration : 2 h 14 min

Bit rate : 57 b/s

Count of elements : 1745

Stream size : 57.3 KiB (0%)

Title : Full

Language : English

Default : No

Forced : No



Text #4

ID : 7

Format : UTF-8

Codec ID : S_TEXT/UTF8

Codec ID/Info : UTF-8 Plain Text

Duration : 2 h 15 min

Bit rate : 66 b/s

Count of elements : 2036

Stream size : 66.1 KiB (0%)

Title : SDH

Language : English

Default : No

Forced : No



Релиз: Присоединяйся к:



Discussion

Comments 0

Post Your Comment

Files in this torrent

FILENAMESIZE
The.Devil.All.The.Time.2020.WEB-DL.1080p.seleZen.mkv8.4 GB

Alternative Torrents for 'Devil All Time'.

TORRENT NAMEADDEDSIZESEEDSPEERSHEALTH
10/2/20202.2 GB750121
10/3/20202.2 GB1418
9/27/20207.5 GB1077
10/9/20201.3 GB7317
9/30/20209.9 GB461
9/30/202010.7 GB3911
10/2/20202.2 GB355
10/9/20202.6 GB3211
10/9/2020711 MB327
9/30/2020990 MB263
10/13/2020980 MB2542
10/13/2020485 MB2241
10/9/2020667 MB208
10/11/20204.3 GB186
10/9/2020421 MB169